2 сезон

iTunes

MVO

1

2 сезон

iTunes

iTunes

1 сезон

RePack

30

Новинка

ВАЖНО

ИГРА 18+

pack

RePack

MK11
pack

Легкие деньги

RePack

jed

RePack

fifa19

RePack

RDR2

RePack

NEED FOR SPEED™ PAYBACK

4 сезон

9 сезон

Бесстыжие 9 сезон

Все сериалы

все сериалы на PB.wtf

RePack

FAR CRY 5

Anonymous, доброе утро, мы не успеваем собрать деньги на оплату серверов за декабрь и январь, помогите нам пожалуйста в это трудное время. В качестве благодарности мы отключим Вам всю рекламу на сайте (укажите свой ник в строку Ваше имя)!

×
  
Magnet ссылка

Дичь / Freaky (Кристофер Лэндон) [2020 г., ужасы, комедия, WEB-DL 1080p] [DUB] [Line] pb.wtf

Дичь через торрент pb.wtf

Раздают: 6 [ 0 KB/s ]
Размер: 7.22 GB | Добавлен: 1 мес. 14 д. назад | Торрент скачан:364 раза
Скачать  

04-12-2020 08:20 Дичь Скачать торрент  

Дичь / Freaky Год выпуска: 2020
Страна: США
Жанр: ужасы, комедия
Продолжительность: 01:42:04
Перевод: Дубляж [Line]
Субтитры: Английские

Режиссер: Кристофер Лэндон

В ролях: Винс Вон, Кэтрин Ньютон, Селеста О Коннор, Миша Ошерович, Эмили Холдер, Николас Старгел, Келли Ламор Уилсон, Митчелл Хуг, Дэна Дрори, Кэти Финнеран

Описание: В результате странного инцидента старшеклассница меняется телами с серийным убийцей. У неё есть меньше 24 часов, чтобы всё исправить, после чего ситуацию будет уже не обратить.
rating скриншот  

Качество: WEB-DL 1080p
Формат: MKV

Видео: MPEG-4, 9221 Кбит/с, 1920x800, 23.976 кадр/с
Аудио: Русский (AC3, 2 ch, 256 Кбит/с)
Аудио: английский (AC3, 6 ch, 640 Кбит/с)
скриншот  скриншот  скриншот  скриншот  

Общее
Уникальный идентификатор : 97876803104676804583332928763940460529 (0x49A262F7F4EAA3DF0D9EEECDED6A57F1)
Полное имя : D:\Торренты\Freaky.2020.1080p.AMZN.WEBRip.DDP5.1.x264-NOGRP\Freaky.2020.AMZN.WEB-DL-1080p-KinoPub.mkv
Формат : Matroska
Версия формата : Version 4
Размер файла : 7,22 Гбайт
Продолжительность : 1 ч. 42 м.
Общий поток : 10,1 Мбит/сек
Название фильма : Дичь / Freaky / 2020
Дата кодирования : UTC 2020-12-04 16:51:51
Программа кодирования : mkvmerge v25.0.0 ('Prog Noir') 64-bit
Библиотека кодирования : libebml v1.3.6 + libmatroska v1.4.9
Обложка : Yes
Attachments : Cover.jpg

Видео
Идентификатор : 1
Формат : AVC
Формат/Информация : Advanced Video Codec
Профиль формата : High@L4
Настройки формата : CABAC / 4 Ref Frames
Параметр CABAC формата : Да
Параметр RefFrames формата : 4 кадра
Идентификатор кодека : V_MPEG4/ISO/AVC
Продолжительность : 1 ч. 42 м.
Вид битрейта : Постоянный
Битрейт : 9 221 Кбит/сек
Номинальный битрейт : 10 000 Кбит/сек
Ширина : 1 920 пикселей
Высота : 800 пикселей
Соотношение сторон : 2,40:1
Режим частоты кадров : Постоянный
Частота кадров : 23,976 (24000/1001) кадра/сек
Цветовое пространство : YUV
Субдискретизация насыщенности : 4:2:0
Битовая глубина : 8 бит
Тип развёртки : Прогрессивная
Бит/(Пиксели*Кадры) : 0.250
Размер потока : 6,57 Гбайт (91%)
Заголовок : AMZN
Язык : English
Default : Да
Forced : Нет
Цветовой диапазон : Limited
Основные цвета : BT.709
Характеристики трансфера : BT.709
Коэффициенты матрицы : BT.709

Аудио #1
Идентификатор : 2
Формат : AC-3
Формат/Информация : Audio Coding 3
Коммерческое название : Dolby Digital
Идентификатор кодека : A_AC3
Продолжительность : 1 ч. 42 м.
Вид битрейта : Постоянный
Битрейт : 256 Кбит/сек
Каналы : 2 канала
Channel layout : L R
Частота : 48,0 КГц
Частота кадров : 31,250 кадров/сек (1536 SPF)
Метод сжатия : С потерями
Размер потока : 187 Мбайт (3%)
Заголовок : DUB Line
Язык : Russian
Service kind : Complete Main
Default : Да
Forced : Нет

Аудио #2
Идентификатор : 3
Формат : AC-3
Формат/Информация : Audio Coding 3
Коммерческое название : Dolby Digital
Идентификатор кодека : A_AC3
Продолжительность : 1 ч. 42 м.
Вид битрейта : Постоянный
Битрейт : 640 Кбит/сек
Каналы : 6 каналов
Channel layout : L R C LFE Ls Rs
Частота : 48,0 КГц
Частота кадров : 31,250 кадров/сек (1536 SPF)
Метод сжатия : С потерями
Размер потока : 467 Мбайт (6%)
Заголовок : Original
Язык : English
Service kind : Complete Main
Default : Нет
Forced : Нет

Текст
Идентификатор : 4
Формат : UTF-8
Идентификатор кодека : S_TEXT/UTF8
Идентификатор кодека/Информация : UTF-8 Plain Text
Продолжительность : 1 ч. 35 м.
Битрейт : 52 бит/сек
Count of elements : 1284
Размер потока : 36,4 Кбайт (0%)
Язык : English
Default : Нет
Forced : Нет
pb.wtf



Скачать Дичь через торрент https://i114.fastpic.ru/big/2020/1204/a7/4e0caeaadcf3963243fe07617fd4cda7.jpeg Скачать фильм Дичь через торрент бесплантно в хорошем качестве Описание: В результате странного инцидента старшеклассница меняется телами с серийным убийцей. У неё есть меньше 24 часов, чтобы всё ... 8.7 10 16
Торрент: Зарегистрирован [2020-12-04 17:51] · скачан: 364 раз
Статус: T временная
Размер: 7.22 GB
Как cкачать? Как скачать Дичь через торрент | UTorrent

% Раздел Тема Автор DL S | L
Фильмы 2019-2020 [DVDrip, WEB-DLRip, HDrip] (DUB, MVO) [ 1.46 GB ] Дичь / Freaky [2020 WEB-DLRip] bober100 Скачать
27 | 0
Фильмы (WEB-DL 720p, 1080p) [ 7.31 GB ] Дичь / Freaky [2020 WEB-DL 1080p] bober100 Скачать
32 | 1
Фильмы 2019-2020 [DVDrip, WEB-DLRip, HDrip] (DUB, MVO) [ 1.46 GB ] Дичь / Freaky [2020 WEB-DLRip] - Twi7ter Скачать
660 | 48
Фильмы 2019-2020 [DVDrip, WEB-DLRip, HDrip] (DUB, MVO) [ 746 MB ] Дичь / Freaky [2020 WEB-DLRip] bober100 Скачать
7 | 0
Фильмы (WEB-DL 720p, 1080p) [ 4.2 GB ] Дичь / Freaky [2020 WEB-DL 720p] bober100 Скачать
25 | 0
T Ultra HD (UHD: 2K, 4K, 8K) — видео сверхвысокой чёткости [ 11.35 GB ] Дичь / Freaky [2020 UHD WEB-DL 2160p] DUB [Line] bober100 Скачать
4 | 0
T Фильмы 2019-2020 [DVDrip, WEB-DLRip, HDrip] (DUB, MVO) [ 1.45 GB ] Дичь / Freaky [2020 WEB-DLRip-AVC] [Чистый звук] от MediaBit Lithuania Скачать
7 | 0

28-11-2019 20:33  

Отключить всю рекламу на сайте


06-01-2021 19:35 Дичь Скачать торрент  

Топик был перенесен из форума Фильмы (WEB-DL 720p, 1080p) в форум Для поглощённых раздач

Причина переноса: Дичь / Freaky
bober100pb.wtf



    Дорогой пользователь! Огромная просьба, поблагодарите релизера, оцените раздачу и оставьте свои комментарий, если Вы скачали Дичь через торрент бесплатно! Внесите свою лепту в развитие PiratBit!
    Комментировать посты могут только пользователи прошедшие не сложную регистрацию
    Показать сообщения:    

    Дичь через торрент
    Скачать бесплатно Дичь
    Дичь скачать торрент
    Дичь смотреть онлайн
    Cкачать фильм Дичь бесплатно
    Дичь скачать торрент в хорошем качестве
    Дичь смотреть онлайн бесплатно в хорошем качестве


    Вы не можете начинать темы
    Вы не можете отвечать на сообщения
    Вы не можете редактировать свои сообщения
    Вы не можете удалять свои сообщения
    Вы не можете голосовать в опросах
    Вы не можете прикреплять файлы к сообщениям
    Вы можете скачивать файлы