2 сезон

iTunes

MVO

1

2 сезон

iTunes

iTunes

1 сезон

RePack

30

Ultimate

ВАЖНО

ИГРА 18+

pack

RePack

MK11
pack

Легкие деньги

RePack

jed

RePack

fifa19

RePack

RDR2

RePack

NEED FOR SPEED™ PAYBACK

4 сезон

9 сезон

Бесстыжие 9 сезон

Все сериалы

все сериалы на PB.wtf

RePack

FAR CRY 5

Anonymous, доброй ночи, мы не успеваем собрать деньги на оплату серверов за декабрь и январь, помогите нам пожалуйста в это трудное время. В качестве благодарности мы отключим Вам всю рекламу на сайте (укажите свой ник в строку Ваше имя)!

×
  
Magnet ссылка

Легенда / Legend (Брайан Хелгеленд / Brian Helgeland) [2015, криминал, триллер, драма, BDRip - HEVC 1080p 10 bit 60 FPS, Open Matte, Dub, AVO] pb.wtf

Легенда через торрент pb.wtf

Раздают: 1 [ 0 KB/s ]
Размер: 6.41 GB | Добавлен: 1 мес. 17 д. назад | Торрент скачан:66 раз
Скачать  

05-12-2020 09:58 Легенда Скачать торрент  

Легенда - Legend«Преступление – как профессия. Взлет и падение легендарных близнецов Крэй»

Год выпуска: 2015
Страна: Великобритания, Франция, США
Жанр: криминал, триллер, драма

Продолжительность: 02:11:42
Перевод: Дубляж
Перевод: Одноголосый закадровый (М. Яроцкий)
Субтитры: нет

Режиссер: Брайан Хелгеленд / Brian Helgeland

В ролях: Том Харди, Эмили Браунинг, Дэвид Тьюлис, Даффи, Кристофер Экклстон, Чазз Пальминтери, Колин Морган, Джошуа Хилл, Пол Андерсон, Тара Фитцджеральд, Николас Фэррел, Адам Фогерти, Мел Райдо, Мейджор Джон Финли, Милли Брэйди, Крис Мэйсон, Стивен Томпсон, Сэм Спруэлл, Тэрон Эджертон, Алекс Фернс

Описание:
Фильм расскажет историю близнецов Реджи и Ронни Крэй, культовых фигур преступного мира Великобритании 1960-х. Братья возглавляли самую влиятельную бандитскую группировку Ист-Энда. В их послужном списке: вооруженные грабежи, рэкет, поджоги, покушения, убийства и собственный ночной клуб, куда заезжали даже голливудские знаменитости. Среди их жертв — криминальные авторитеты Джек МакВитти и Джордж Корнелл.

Мировая премьера: 3 сентября 2015


Качество: BDRip 1080p by DD2D3
Формат: MKV
Видео кодек: V_MPEGH/ISO/HEVC
Аудио кодек: DTS
Видео: V_MPEGH/ISO/HEVC; 1920x1080 (16:9); 5005 Kbps; 60 fps; 0,040 bpp
Аудио: русский; DTS; 1509 Kbps; CBR; 6 ch; 24 bit
Аудио: русский; AC3; 448 Kbps; CBR; 6 ch
Навигация по главам: нет



General
Unique ID : 238060054726275310453270407949513165121 (0xB318B2E44B17B3CBA7579EBB1BE08941)
Complete name : D:\Legend (2015) [Open Matte] BDRip - HEVC 1080p 10 bit 60 FPS.mkv
Format : Matroska
Format version : Version 4
File size : 6.41 GiB
Duration : 2 h 11 min
Overall bit rate : 6 966 kb/s
Movie name : Rip by from DD2D3
Encoded date : UTC 2020-12-05 09:09:46
Writing application : mkvmerge v10.0.0 ('To Drown In You') 32bit
Writing library : libebml v1.3.4 + libmatroska v1.4.5
Attachments : poster

Video
ID : 1
Format : HEVC
Format/Info : High Efficiency Video Coding
Format profile : Main 10@L4.1@Main
Codec ID : V_MPEGH/ISO/HEVC
Duration : 2 h 11 min
Bit rate : 5 005 kb/s
Width : 1 920 pixels
Height : 1 080 pixels
Display aspect ratio : 16:9
Frame rate mode : Constant
Frame rate : 60.000 FPS
Color space : YUV
Chroma subsampling : 4:2:0
Bit depth : 10 bits
Bits/(Pixel*Frame) : 0.040
Stream size : 4.60 GiB (72%)
Writing library : x265 2.3+33-0b7d54dbb71a87a0:[Windows][MSVC 1800][64 bit] 10bit: KG7x [x265.ru]
Encoding settings : cpuid=1173503 / frame-threads=2 / numa-pools=4 / wpp / no-pmode / no-pme / no-psnr / no-ssim / log-level=2 / input-csp=1 / input-res=1920x1080 / interlace=0 / total-frames=474176 / level-idc=41 / high-tier=1 / uhd-bd=0 / ref=3 / no-allow-non-conformance / no-repeat-headers / annexb / no-aud / no-hrd / info / hash=0 / no-temporal-layers / open-gop / min-keyint=25 / keyint=250 / bframes=4 / b-adapt=2 / b-pyramid / bframe-bias=0 / rc-lookahead=20 / lookahead-slices=6 / scenecut=40 / no-intra-refresh / ctu=64 / min-cu-size=8 / no-rect / no-amp / max-tu-size=32 / tu-inter-depth=1 / tu-intra-depth=1 / limit-tu=0 / rdoq-level=0 / dynamic-rd=0.00 / no-ssim-rd / signhide / no-tskip / nr-intra=0 / nr-inter=0 / no-constrained-intra / strong-intra-smoothing / max-merge=2 / limit-refs=3 / no-limit-modes / me=1 / subme=2 / merange=57 / temporal-mvp / weightp / no-weightb / no-analyze-src-pics / deblock=0:0 / sao / no-sao-non-deblock / rd=3 / no-early-skip / rskip / no-fast-intra / no-tskip-fast / no-cu-lossless / no-b-intra / rdpenalty=0 / psy-rd=2.00 / psy-rdoq=0.00 / no-rd-refine / analysis-mode=0 / no-lossless / cbqpoffs=0 / crqpoffs=0 / rc=abr / bitrate=5000 / qcomp=0.60 / qpstep=4 / stats-write=0 / stats-read=2 / cplxblur=20.0 / qblur=0.5 / ipratio=1.40 / pbratio=1.30 / aq-mode=1 / aq-strength=1.00 / cutree / zone-count=0 / no-strict-cbr / qg-size=32 / no-rc-grain / qpmax=69 / qpmin=0 / sar=1 / overscan=0 / videoformat=5 / range=0 / colorprim=2 / transfer=2 / colormatrix=2 / chromaloc=0 / display-window=0 / max-cll=0,0 / min-luma=0 / max-luma=1023 / log2-max-poc-lsb=8 / vui-timing-info / vui-hrd-info / slices=1 / opt-qp-pps / opt-ref-list-length-pps / no-multi-pass-opt-rps / scenecut-bias=0.05 / no-opt-cu-delta-qp / no-aq-motion / no-hdr / no-hdr-opt / refine-level=5 / no-limit-sao
Default : Yes
Forced : No

Audio #1
ID : 2
Format : DTS
Format/Info : Digital Theater Systems
Codec ID : A_DTS
Duration : 2 h 11 min
Bit rate mode : Constant
Bit rate : 1 509 kb/s
Channel(s) : 6 channels
Channel layout : C L R Ls Rs LFE
Sampling rate : 48.0 kHz
Frame rate : 93.750 FPS (512 SPF)
Bit depth : 24 bits
Compression mode : Lossy
Stream size : 1.39 GiB (22%)
Title : Дубляж
Language : Russian
Default : Yes
Forced : No

Audio #2
ID : 3
Format : AC-3
Format/Info : Audio Coding 3
Commercial name : Dolby Digital
Codec ID : A_AC3
Duration : 2 h 11 min
Bit rate mode : Constant
Bit rate : 448 kb/s
Channel(s) : 6 channels
Channel layout : L R C LFE Ls Rs
Sampling rate : 48.0 kHz
Frame rate : 31.250 FPS (1536 SPF)
Compression mode : Lossy
Stream size : 421 MiB (6%)
Title : Яроцкий
Language : Russian
Service kind : Complete Main
Default : No
Forced : No


скриншот   скриншот   скриншот   скриншот  


pb.wtf



Скачать Легенда через торрент https://funkyimg.com/i/39981.jpg Скачать фильм Легенда через торрент бесплантно в хорошем качестве Описание: Фильм расскажет историю близнецов Реджи и Ронни Крэй, культовых фигур преступного мира Великобритании 1960-х. Братья возглавляли ... 10 10 3
Торрент: Зарегистрирован [2020-12-05 09:58] · скачан: 66 раз
Статус: √ проверено
Размер: 6.41 GB
Как cкачать? Как скачать Легенда через торрент | UTorrent

% Раздел Тема Автор DL S | L
Фильмы 2006-2008 [ 4.85 GB ] Я - легенда / I Am Legend [2007 BDRip 720p] [Альтернативная версия / Alternative Cut] Stargate_Universe Скачать
1 | 0
Фильмы до 2000 г. [ 2.2 GB ] Легенда о пианисте / La Leggenda Del Pianista Sull'Oceano [1998 музыка BDRip] [Полная версия] [AVO] killermax2013 Скачать
1 | 0
MMORPG [ 3.39 GB ] League of Legends / Лига Легенд [Eu Noedic & East Server] [L] [ENG] [лицензияENGMOBA RTS Action RPG] Peenky Скачать
1 | 0
Аниме [DVDrip, WEB-DLRip, HDrip] [ 3.93 GB ] Аватар: Легенда о Корре / The Legend of Korra [2013 мультфильм WEB-DLRip Любительский многоголосый] Чувак Скачать
1 | 0
Фильмы до 2000 г. [ 2.18 GB ] Легенды осени / Legends of the Fall [1994 военный BDRip] DUB + Sub -=Cherry=- Скачать
1 | 0
Фильмы [HD 720p, 1080p] (Звук Cam, VO, DVO) [ 8.91 GB ] Легенды: Гробница дракона / Legendary: Tomb of the Dragon [2013 BDRip 1080p] VO Ворон Скачать
1 | 0
Иностранные мультфильмы [ 1.33 GB ] Скуби-Ду! И легенда о вампире / Scooby-Doo! And the Legend of the Vampire [2003 мультфильм DVDRip] Виталий2020 Скачать
1 | 0

28-11-2019 20:33  

Отключить всю рекламу на сайте

05-12-2020 10:19 Легенда Скачать торрент  

Уххх ты ёмоё спасибо большое pb.wtf



    Дорогой пользователь! Огромная просьба, поблагодарите релизера, оцените раздачу и оставьте свои комментарий, если Вы скачали Легенда через торрент бесплатно! Внесите свою лепту в развитие PiratBit!
    Комментировать посты могут только пользователи прошедшие не сложную регистрацию
    Показать сообщения:    

    Легенда через торрент
    Скачать бесплатно Легенда
    Легенда скачать торрент
    Легенда смотреть онлайн
    Cкачать фильм Легенда бесплатно
    Легенда скачать торрент в хорошем качестве
    Легенда смотреть онлайн бесплатно в хорошем качестве


    Вы не можете начинать темы
    Вы не можете отвечать на сообщения
    Вы не можете редактировать свои сообщения
    Вы не можете удалять свои сообщения
    Вы не можете голосовать в опросах
    Вы не можете прикреплять файлы к сообщениям
    Вы можете скачивать файлы