Anonymous, добрый день, присоединяйтесь к нам в Telegram!, здесь всегда актуальный адрес сайта, оперативная поддержка и многое другое!

>

5.5

iTunes

7.4

iTunes

7.9

iTunes

1

7.7

1 сезон

6.8

iTunes

7.3

1 сезон

13

6.7

1 сезон

8.3

RePack

30

ULTIMATE

pack

9.9

Лицензия

ВАЖНО

ИГРА 18+

pack

7.3

RePack

MK11

7.7

RePack

jed

7.8

RePack

fifa19

8.5

RePack

RDR2

RePack

NEED FOR SPEED™ PAYBACK

4 сезон

9 сезон

Бесстыжие 9 сезон

Все сериалы

все сериалы на PB.wtf

RePack

FAR CRY 5

Anonymous, добрый день, мы катастрофически не успеваем собрать деньги на оплату серверов, помогите нам пожалуйста 5,10,15р., для нас важна любая помощь . В качестве благодарности мы отключим Вам всю рекламу на сайте (укажите свой ник в строку Ваше имя)!

×
  
Magnet ссылка

Волк / Сезон: 1 / Серии: 1-14 из 14 (Геннадий Островский) [2020, Детектив, драма, история, приключения, WEBRip] pb.wtf

Волк через торрент pb.wtf

Раздают: 1 [ 0 KB/s ]
Размер: 8.52 GB | Добавлен: 9 мес. назад | Торрент скачан:201 раз
Смотреть онлайн Волк | Скачать    Ребята, помогите собрать деньги на оплату серверов!!!

07-12-2020 10:17 Волк Скачать торрент  

Волк
Год выпуска: 2020
Страна: Россия
Выпущено: «Киностудия КИТ», «ВайТ Медиа» по заказу телеканала НТВ
Жанр: Детектив, драма, история, приключения
Продолжительность: ~ 00:51:00
Перевод: Не требуется
Субтитры: отсутствуют

Режиссер: Геннадий Островский



В ролях: Денис Шведов, Сергей Маковецкий, Артур Смольянинов, Елена Подкаминская, Антон Васильев (III), Виктор Проскурин, Алёна Михайлова, Марина Зудина, Виталий Хаев, Грегори-Саид Багов, Мария Ульянова, Аскар Нигамедзянов, Валентина Ляпина, Игорь Ясулович, Илья Любимов, Варвара Феофанова, Алевтина Тукан, Игорь Миркурбанов, Александр Семчев, Катерина Беккер, Сергей Комаров (II)

Описание: По мотивам романа Александра Терехова «Каменный мост». После неудачной спецоперации разведчик Александр Волк попадает в тюрьму арабского Востока. Спустя несколько лет генерал-майор КГБ в отставке Гольцман помогает ему выбраться из плена, но взамен просит Волка найти убийц своего сына. Убитый был хорошим другом Александра, поэтому тот немедленно берется за дело. Накануне своей смерти сын Гольцмана занимался расследованием событий 3 июня 1943 года на Каменном мосту в Москве, когда была убита дочь посла СССР в Мексике. Волк восстанавливает события прошлого, но чем больше он узнает, тем опаснее становится дело...

Качество: WEBRip
Формат: AVI

Видео: XviD, ~ 1650 Кбит/с, 720х400
Аудио: 48.0 kHz, AC3 Dolby Digital, 2/0 (L,R) ch, ~ 192 kbps
скриншот  скриншот  скриншот  скриншот  

Общее
Полное имя : C:\Volk.2020.WEB-DLRip.25Kuzmich\Volk.e01.WEB-DLRip.25Kuzmich.avi
Формат : AVI
Формат/Информация : Audio Video Interleave
Размер файла : 681 Мбайт
Продолжительность : 51 м. 24 с.
Общий поток : 1852 Кбит/сек
Программа кодирования : VirtualDubMod 1.5.10.3 | www.virtualdub-fr.org || (build 2550/release)
Библиотека кодирования : VirtualDubMod build 2550/release

Видео
Идентификатор : 0
Формат : MPEG-4 Visual
Профиль формата : Advanced Simple@L5
Настройки формата : BVOP1
Параметр BVOP формата : 1
Параметр QPel формата : Нет
Параметр GMC формата : Без точки перехода
Параметр матрицы формата : Default (MPEG)
Идентификатор кодека : XVID
Идентификатор кодека/Подсказка : XviD
Продолжительность : 51 м. 24 с.
Битрейт : 1577 Кбит/сек
Ширина : 720 пикселей
Высота : 400 пикселей
Соотношение сторон : 16:9
Частота кадров : 25,000 кадров/сек
Цветовое пространство : YUV
Субдискретизация насыщенности : 4:2:0
Битовая глубина : 8 бит
Тип развёртки : Прогрессивная
Метод сжатия : С потерями
Бит/(Пиксели*Кадры) : 0.219
Размер потока : 580 Мбайт (85%)
Библиотека кодирования : XviD 73

Аудио
Идентификатор : 1
Формат : AC-3
Формат/Информация : Audio Coding 3
Коммерческое название : Dolby Digital
Идентификатор кодека : 2000
Продолжительность : 51 м. 24 с.
Вид битрейта : Постоянный
Битрейт : 192 Кбит/сек
Каналы : 2 канала
ChannelLayout : L R
Частота : 48,0 КГц
Частота кадров : 31,250 кадров/сек (1536 SPF)
Битовая глубина : 16 бит
Метод сжатия : С потерями
Размер потока : 70,6 Мбайт (10%)
Выравнивание : Разделение по промежуткам
ServiceKind/String : Complete Main

Когда раздача ведётся путём добавления новых серий, при каждом добавлении создётся новый торрент. Чтобы начать докачку новой серии, пользователям необходимо сделать следующее:
(1) остановить скачивание,
(2) удалить старый торрент у себя из клиента (старые серии удалять не надо),
(3) скачать новый торрент и запустить его у себя в клиенте вместо старого, при этом указать клиенту путь в старую папку, куда и должно происходить скачивание новых серий.
Ваш клиент при этом должен произвести хеширование (проверку) старой папки (если не производит сам - помогите ему сделать это), и будет докачивать только те серии, которых у вас ещё нет. Старые серии при этом не удаляются, а продолжают раздаваться!
Eсли вы уже удалили старые серии, то предотвратить повторную закачку старых серий можно, отжав галочку в соответсвующих местах при запуске нового торрента. По возможности, желательно не удалять старые серии как можно дольше, чтобы релизёр не столько продолжал раздавать старые серии, а смог сконцентрироваться на новых.

pb.wtf



Скачать Волк через торрент https://img11.lostpic.net/2020/12/07/d4d04811dded06be0e9b5789ee9018ad.jpg Скачать, смотреть онлайн Волк бесплантно в хорошем качестве Описание: По мотивам романа Александра Терехова «Каменный мост». После неудачной спецоперации разведчик Александр Волк попадает в тюрьму ... 10 10 18
Торрент: Зарегистрирован [2020-12-28 16:14] · скачан: 201 раз
Статус: √ проверено
Размер: 8.52 GB
Как cкачать? Как скачать Волк через торрент | UTorrent

% Раздел Тема Автор DL S | L
TNT serials [ 22.36 GB ] Волк / Сезон: 1 / Серии: 1-14 из 14 [2020 история WEBRip 1080p] bober100 Скачать
2 | 0
TNT serials [ 15.35 GB ] Волк / Сезон: 1 / Серии: 1-14 из 14 [2020 история WEBRip 720p] bober100 Скачать
3 | 0
TNT serials [ 8.61 GB ] Волк / Сезон: 1 / Серии: 1-14 из 14 [2020 история WEBRip-AVC] bober100 Скачать
2 | 1
Зарубежные сериалы [ 16.44 GB ] Вызов / Непокорная Земля / Defiance / Сезон: 2 / Серии 1-13 из 13 [ 2014 WEB-DL720p ] MVO GEKADOL Скачать
1 | 0
Зарубежные сериалы [ 7.41 GB ] Вызов / Непокорная Земля / Defiance / Сезон: 2 / Серии 1-13 из 13 [ 2014 WEB-DLRip ] MVO GEKADOL Скачать
1 | 0
Наши сериалы [ 11.16 GB ] Белые волки [2014 DVB] Оригинал Бумер Скачать
1 | 0
Наши сериалы [ 7.37 GB ] Белые волки [2012 DVDRip] Оригинал Бумер Скачать
1 | 0

28-11-2019 20:33  

Отключить всю рекламу на сайте

03-01-2021 09:03 Волк Скачать торрент  

это полная шляпа.с такими актёрами и такое....Бог ты мой,.."путешествие во времени"...к чему это?pb.wtf



    Дорогой пользователь! Огромная просьба, поблагодарите релизера, оцените раздачу и оставьте свои комментарий, если Вы скачали Волк через торрент бесплатно!
    Комментировать посты могут только пользователи прошедшие не сложную регистрацию
    Показать сообщения:    

    Волк через торрент
    Скачать бесплатно Волк
    Волк скачать торрент
    Волк смотреть онлайн
    Cкачать фильм Волк бесплатно
    Волк скачать торрент в хорошем качестве
    Волк смотреть онлайн бесплатно в хорошем качестве


    Вы не можете начинать темы
    Вы не можете отвечать на сообщения
    Вы не можете редактировать свои сообщения
    Вы не можете удалять свои сообщения
    Вы не можете голосовать в опросах
    Вы не можете прикреплять файлы к сообщениям
    Вы можете скачивать файлы