Anonymous, доброй ночи, присоединяйтесь к нам в Telegram!, здесь всегда актуальный адрес сайта, оперативная поддержка и многое другое!

>

5.6

iTunes

7.4

MVO

5.7

MVO

1

7.7

1 сезон

6.8

iTunes

7.3

1 сезон

13

6.7

1 сезон

8.3

RePack

30

ULTIMATE

pack

9.9

Лицензия

ВАЖНО

ИГРА 18+

pack

7.3

RePack

MK11

7.7

RePack

jed

7.8

RePack

fifa19

8.5

RePack

RDR2

RePack

NEED FOR SPEED™ PAYBACK

4 сезон

9 сезон

Бесстыжие 9 сезон

Все сериалы

все сериалы на PB.wtf

RePack

FAR CRY 5

Anonymous, доброй ночи, мы катастрофически не успеваем собрать деньги на оплату серверов, помогите нам пожалуйста 5,10,15р., для нас важна любая помощь . В качестве благодарности мы отключим Вам всю рекламу на сайте (укажите свой ник в строку Ваше имя)!

×
  
Magnet ссылка

Волк / Сезон: 1 / Серии: 1-14 из 14 (Геннадий Островский) [2020, Детектив, драма, история, приключения, WEBRip 720p] pb.wtf

Волк через торрент pb.wtf

Размер: 15.35 GB | Добавлен: 9 мес. назад | Торрент скачан:75 раз
Смотреть онлайн Волк | Скачать    Ребята, помогите собрать деньги на оплату серверов!!!

07-12-2020 14:17 Волк Скачать торрент  

Волк
Год выпуска: 2020
Страна: Россия
Выпущено: «Киностудия КИТ», «ВайТ Медиа» по заказу телеканала НТВ
Жанр: Детектив, драма, история, приключения
Продолжительность: ~ 00:51:00
Перевод: Не требуется
Субтитры: отсутствуют

Режиссер: Геннадий Островский



В ролях: Денис Шведов, Сергей Маковецкий, Артур Смольянинов, Елена Подкаминская, Антон Васильев (III), Виктор Проскурин, Алёна Михайлова, Марина Зудина, Виталий Хаев, Грегори-Саид Багов, Мария Ульянова, Аскар Нигамедзянов, Валентина Ляпина, Игорь Ясулович, Илья Любимов, Варвара Феофанова, Алевтина Тукан, Игорь Миркурбанов, Александр Семчев, Катерина Беккер, Сергей Комаров (II)

Описание: По мотивам романа Александра Терехова «Каменный мост». После неудачной спецоперации разведчик Александр Волк попадает в тюрьму арабского Востока. Спустя несколько лет генерал-майор КГБ в отставке Гольцман помогает ему выбраться из плена, но взамен просит Волка найти убийц своего сына. Убитый был хорошим другом Александра, поэтому тот немедленно берется за дело. Накануне своей смерти сын Гольцмана занимался расследованием событий 3 июня 1943 года на Каменном мосту в Москве, когда была убита дочь посла СССР в Мексике. Волк восстанавливает события прошлого, но чем больше он узнает, тем опаснее становится дело...

Качество: WEBRip 720p
Формат: MKV

Видео: 1280х720 (16:9), 25 fps, AVC MPEG-4 (x264), High@L4.1 ~ 3000 kbps avg, 0.128 bit/pixel
Аудио: 48.0 kHz, AC3 Dolby Digital, 2/0 (L,R) ch, ~ 192 kbps
скриншот  скриншот  скриншот  скриншот  

Общее
Уникальный идентификатор : 216686281326011360471529241415649781987 (0xA304428092AFC24E9D142D3F1936E8E3)
Полное имя : C:\Volk.2020.WEB-DL.(720p).ExKinoRay\Volk.E01.2020.WEB-DL.(720p).ExKinoRay.mkv
Формат : Matroska
Версия формата : Version 4
Размер файла : 1,15 Гбайт
Продолжительность : 51 м. 24 с.
Общий поток : 3195 Кбит/сек
Дата кодирования : UTC 2020-12-07 12:03:23
Программа кодирования : mkvmerge v6.9.1 ('Blue Panther') 64bit built on Apr 18 2014 18:23:38
Библиотека кодирования : libebml v1.3.0 + libmatroska v1.4.1

Видео
Идентификатор : 1
Формат : AVC
Формат/Информация : Advanced Video Codec
Профиль формата : High@L4.1
Настройки формата : CABAC / 9 Ref Frames
Параметр CABAC формата : Да
Параметр RefFrames формата : 9 кадров
Идентификатор кодека : V_MPEG4/ISO/AVC
Продолжительность : 51 м. 24 с.
Битрейт : 2939 Кбит/сек
Ширина : 1280 пикселей
Высота : 720 пикселей
Соотношение сторон : 16:9
Режим частоты кадров : Постоянный
Частота кадров : 25,000 кадров/сек
Цветовое пространство : YUV
Субдискретизация насыщенности : 4:2:0
Битовая глубина : 8 бит
Тип развёртки : Прогрессивная
Бит/(Пиксели*Кадры) : 0.128
Размер потока : 1,06 Гбайт (92%)
Default : Нет
Forced : Нет
Цветовой диапазон : Limited
Основные цвета : BT.709
Характеристики трансфера : BT.709
Коэффициенты матрицы : BT.709

Аудио
Идентификатор : 2
Формат : AC-3
Формат/Информация : Audio Coding 3
Коммерческое название : Dolby Digital
Идентификатор кодека : A_AC3
Продолжительность : 51 м. 24 с.
Вид битрейта : Постоянный
Битрейт : 192 Кбит/сек
Каналы : 2 канала
ChannelLayout : L R
Частота : 48,0 КГц
Частота кадров : 31,250 кадров/сек (1536 SPF)
Битовая глубина : 16 бит
Метод сжатия : С потерями
Размер потока : 70,6 Мбайт (6%)
Язык : Russian
ServiceKind/String : Complete Main
Default : Да
Forced : Нет

Когда раздача ведётся путём добавления новых серий, при каждом добавлении создётся новый торрент. Чтобы начать докачку новой серии, пользователям необходимо сделать следующее:
(1) остановить скачивание,
(2) удалить старый торрент у себя из клиента (старые серии удалять не надо),
(3) скачать новый торрент и запустить его у себя в клиенте вместо старого, при этом указать клиенту путь в старую папку, куда и должно происходить скачивание новых серий.
Ваш клиент при этом должен произвести хеширование (проверку) старой папки (если не производит сам - помогите ему сделать это), и будет докачивать только те серии, которых у вас ещё нет. Старые серии при этом не удаляются, а продолжают раздаваться!
Eсли вы уже удалили старые серии, то предотвратить повторную закачку старых серий можно, отжав галочку в соответсвующих местах при запуске нового торрента. По возможности, желательно не удалять старые серии как можно дольше, чтобы релизёр не столько продолжал раздавать старые серии, а смог сконцентрироваться на новых.

pb.wtf



Скачать Волк через торрент https://img11.lostpic.net/2020/12/07/d4d04811dded06be0e9b5789ee9018ad.jpg Скачать, смотреть онлайн Волк бесплантно в хорошем качестве Описание: По мотивам романа Александра Терехова «Каменный мост». После неудачной спецоперации разведчик Александр Волк попадает в тюрьму ... 9.9 10 12
Торрент: Зарегистрирован [2020-12-29 16:34] · скачан: 75 раз
Статус: √ проверено
Размер: 15.35 GB
Как cкачать? Как скачать Волк через торрент | UTorrent

% Раздел Тема Автор DL S | L
TNT serials [ 22.36 GB ] Волк / Сезон: 1 / Серии: 1-14 из 14 [2020 история WEBRip 1080p] bober100 Скачать
2 | 0
TNT serials [ 8.52 GB ] Волк / Сезон: 1 / Серии: 1-14 из 14 [2020 история WEBRip] bober100 Скачать
1 | 0
TNT serials [ 8.61 GB ] Волк / Сезон: 1 / Серии: 1-14 из 14 [2020 история WEBRip-AVC] bober100 Скачать
2 | 0
Зарубежные сериалы [ 16.44 GB ] Вызов / Непокорная Земля / Defiance / Сезон: 2 / Серии 1-13 из 13 [ 2014 WEB-DL720p ] MVO GEKADOL Скачать
1 | 0
Зарубежные сериалы [ 7.41 GB ] Вызов / Непокорная Земля / Defiance / Сезон: 2 / Серии 1-13 из 13 [ 2014 WEB-DLRip ] MVO GEKADOL Скачать
1 | 0
Наши сериалы [ 11.16 GB ] Белые волки [2014 DVB] Оригинал Бумер Скачать
1 | 0
Наши сериалы [ 7.37 GB ] Белые волки [2012 DVDRip] Оригинал Бумер Скачать
1 | 0

28-11-2019 20:33  

Отключить всю рекламу на сайте

    Дорогой пользователь! Огромная просьба, поблагодарите релизера, оцените раздачу и оставьте свои комментарий, если Вы скачали Волк через торрент бесплатно!
    Комментировать посты могут только пользователи прошедшие не сложную регистрацию
    Показать сообщения:    

    Волк через торрент
    Скачать бесплатно Волк
    Волк скачать торрент
    Волк смотреть онлайн
    Cкачать фильм Волк бесплатно
    Волк скачать торрент в хорошем качестве
    Волк смотреть онлайн бесплатно в хорошем качестве


    Вы не можете начинать темы
    Вы не можете отвечать на сообщения
    Вы не можете редактировать свои сообщения
    Вы не можете удалять свои сообщения
    Вы не можете голосовать в опросах
    Вы не можете прикреплять файлы к сообщениям
    Вы можете скачивать файлы