Доктор Стрэндж

Лицензия

Добыча

Дубляж

Уэнсдэй

1 сезон

Тор

Дубляж

В эфире

Дубляж

Там, где раки поют

MVO

Властелин колец

1 сезон

Deluxe

pack

Рекомендуем

30

Пиратка

ВАЖНО

ВАЖНО

Ghostwire

Пиратка

jed

RePack

nioh2

RePack

RDR2

RePack

NEED FOR SPEED™ PAYBACK

RePack

скачать торрент

Кинопоиск HD

Острые козырьки 6 сезон

6 сезон

FAR CRY 6

RePack

скачать торрент

Лицензия

скачать торрент

MVO

1

1 сезон

скачать торрент

1 сезон

скачать торрент

Лицензия

  

Проксима / Proxima (Алис Винокур) [2019, Боевик, драма, BD Remux 1080p] Дубляж [iTunes]

Проксима через торрент pb.wtf

Размер: 26.3 GB | Добавлен: 2 года назад | Торрент скачан:20 раз
Смотреть онлайн | Скачать   

08-12-2020 11:03 Проксима Скачать торрент  

Проксима | Proxima
Год выпуска: 2019
Страна: Франция, Германия
Студия: Dharamsala, Darius Films, Pathé
Жанр: Боевик, драма
Продолжительность: 01:47:25
Перевод: Дублированный | iTunes
Субтитры: Русские (Full), английские

Режиссер: Алис Винокур

rating

В ролях: Ева Грин, Зели Булан, Мэтт Диллон, Алексей Фатеев, Ларс Айдингер, Сандра Хюллер, Тронд-Эрик Вэссэл, Нэнси Тейт, Грегуар Колен, Игорь Филиппов

Описание: Сара — астронавт, которая проходит подготовку в России для последней экспедиции перед полетом на Марс. Ее партнер по полету Майк помогает ей справиться с запредельными нагрузками и поддерживает эмоционально перед расставанием с дочерью. Старт миссии «Проксима» должен состояться на космодроме Байконур.

Качество: BD Remux 1080p
Формат: MKV

Видео: MPEG-4 AVC, 1920x1080, 31.5 Mbit/s, 24.000 fps
Аудио#1: 48 kHz, AC3, 5.1, 384 Kbps | iTunes | RUS |
Аудио#2: 48 kHz, DTS-HD MA, 5.1, 3150 Kbps | Оригинал | FRE |
скриншот  скриншот  скриншот  скриншот  скриншот  

General
Unique ID : 237807345613810354481892040987331349011 (0xB2E8075EDDA93545052F1675CD1D4A13)
Complete name : F:Video111Proxima.2019.BDREMUX.1080p.seleZen.mkv
Format : Matroska
Format version : Version 4
File size : 26.3 GiB
Duration : 1 h 47 min
Overall bit rate mode : Variable
Overall bit rate : 35.0 Mb/s
Movie name : Proxima 2019 from seleZen
Encoded date : UTC 2020-12-08 10:38:14
Writing application : mkvmerge v40.0.0 ('Old Town Road + Pony') 64-bit
Writing library : libebml v1.3.9 + libmatroska v1.5.2

Video
ID : 1
Format : AVC
Format/Info : Advanced Video Codec
Format profile : [email protected]
Format settings : CABAC / 4 Ref Frames
Format settings, CABAC : Yes
Format settings, Reference : 4 frames
Codec ID : V_MPEG4/ISO/AVC
Duration : 1 h 47 min
Bit rate mode : Variable
Bit rate : 31.5 Mb/s
Maximum bit rate : 38.0 Mb/s
Width : 1 920 pixels
Height : 1 080 pixels
Display aspect ratio : 16:9
Frame rate mode : Constant
Frame rate : 24.000 FPS
Color space : YUV
Chroma subsampling : 4:2:0
Bit depth : 8 bits
Scan type : Progressive
Bits/(Pixel*Frame) : 0.633
Stream size : 23.6 GiB (90%)
Language : French
Default : Yes
Forced : No

Audio #1
ID : 2
Format : AC-3
Format/Info : Audio Coding 3
Commercial name : Dolby Digital
Codec ID : A_AC3
Duration : 1 h 47 min
Bit rate mode : Constant
Bit rate : 384 kb/s
Channel(s) : 6 channels
Channel layout : L R C LFE Ls Rs
Sampling rate : 48.0 kHz
Frame rate : 31.250 FPS (1536 SPF)
Compression mode : Lossy
Stream size : 295 MiB (1%)
Title : iTunes
Language : Russian
Service kind : Complete Main
Default : Yes
Forced : Yes

Audio #2
ID : 3
Format : DTS XLL
Format/Info : Digital Theater Systems
Commercial name : DTS-HD Master Audio
Codec ID : A_DTS
Duration : 1 h 47 min
Bit rate mode : Variable
Bit rate : 3 150 kb/s
Channel(s) : 6 channels
Channel layout : C L R Ls Rs LFE
Sampling rate : 48.0 kHz
Frame rate : 93.750 FPS (512 SPF)
Bit depth : 24 bits
Compression mode : Lossless
Stream size : 2.36 GiB (9%)
Title : Original
Language : French
Default : No
Forced : No

Text #1
ID : 4
Format : UTF-8
Codec ID : S_TEXT/UTF8
Codec ID/Info : UTF-8 Plain Text
Duration : 1 h 41 min
Bit rate : 63 b/s
Count of elements : 949
Stream size : 47.3 KiB (0%)
Title : Full
Language : Russian
Default : No
Forced : No

Text #2
ID : 5
Format : UTF-8
Codec ID : S_TEXT/UTF8
Codec ID/Info : UTF-8 Plain Text
Duration : 1 h 40 min
Bit rate : 37 b/s
Count of elements : 948
Stream size : 27.4 KiB (0%)
Title : Full
Language : English
Default : No
Forced : No

Menu
00:00:00.000 : fr:Глава 01
00:11:42.500 : fr:Глава 02
00:25:33.125 : fr:Глава 03
00:39:36.792 : fr:Глава 04
00:53:03.292 : fr:Глава 05
01:06:47.958 : fr:Глава 06
01:21:23.458 : fr:Глава 07
01:32:52.958 : fr:Глава 08




Скачать Проксима через торрент https://i114.fastpic.ru/big/2020/1208/6e/8662a8b8160a3c483eb2c99908af6e6e.jpg Скачать, смотреть онлайн Проксима бесплантно в хорошем качестве Описание: Сара — астронавт, которая проходит подготовку в России для последней экспедиции перед полетом на Марс. Ее партнер по полету Майк ... 8.2 10 5
Торрент: Зарегистрирован [2020-12-08 11:03] · скачан: 20 раз
Статус: √ проверено
Размер: 26.3 GB
Как cкачать? Как скачать Проксима через торрент | UTorrent

% Раздел Тема Автор DL S | L
Фильмы [HD 720p, 1080p] (Хороший звук DUB, MVO) [ 13.14 GB ] Проксима / Proxima | iTunes | 1080p bober100 Скачать
1 | 0
Фильмы 2019-2020 [DVDrip, WEB-DLRip, HDrip] (DUB, MVO) [ 1.41 GB ] Проксима / Proxima | iTunes | BDRip bober100 Скачать
2 | 0
Фильмы 2019-2020 [DVDrip, WEB-DLRip, HDrip] (DUB, MVO) [ 1.45 GB ] Проксима / Proxima | iTunes | HDRip-AVC Lithuania Скачать
1 | 0
Фильмы 2019-2020 [DVDrip, WEB-DLRip, HDrip] (DUB, MVO) [ 1.41 GB ] Проксима / Proxima | Лицензия | BDRip Twi7ter Скачать
2 | 0
Фильмы [HD 720p, 1080p] (Хороший звук DUB, MVO) [ 7.14 GB ] Проксима / Proxima | iTunes | 720p bober100 Скачать
1 | 0
Фильмы (WEB-DL 720p, 1080p) [ 4.13 GB ] Проксима / Proxima | iTunes | 1080p bober100 Скачать
1 | 0
Фильмы 2019-2020 [DVDrip, WEB-DLRip, HDrip] (DUB, MVO) [ 708 MB ] Проксима / Proxima | iTunes" | DLRip, Дубляж "iTunes" coc900 Скачать
1 | 0

28-11-2019 20:33  


Отключить вcю реклaмy на сайте, в т.ч. и в плеере онлайн просмотра!

    Дорогой пользователь! Огромная просьба, поблагодарите релизера, оцените раздачу и оставьте свои комментарий, если Вы скачали Проксима через торрент бесплатно!!
    Комментировать посты могут только пользователи прошедшие не сложную регистрацию
    Показать сообщения:    


    Проксима через торрент
    Скачать бесплатно Проксима
    Проксима скачать торрент
    Проксима смотреть онлайн
    Cкачать фильм Проксима бесплатно
    Проксима скачать торрент в хорошем качестве
    Проксима смотреть онлайн бесплатно в хорошем качестве
    Вы не можете начинать темы
    Вы не можете отвечать на сообщения
    Вы не можете редактировать свои сообщения
    Вы не можете удалять свои сообщения
    Вы не можете голосовать в опросах
    Вы не можете прикреплять файлы к сообщениям
    Вы можете скачивать файлы
    Проксима / Proxima [2019, Боевик, драма, BD Remux 1080p] Дубляж [iTunes] смотреть онлайн, скачать торрент picoco.icu