Всегда рабочее зеркало без VPN и Proxy просто перед .vidak.icu напиши любое слово или цифру, Пример http://mwq5.vidak.icu

MVO

MVO

1 сезон

1

1 сезон

iTunes

1 сезон

13

1 сезон

Deluxe

pack

Рекомендуем

Repack

30

ВАЖНО

RePack

MK11

RePack

jed

RePack

fifa19

RePack

RDR2

RePack

NEED FOR SPEED™ PAYBACK

Кинопоиск HD

6 сезон

 Острые козырьки 6 сезон

Все сериалы

все сериалы на PB.wtf

RePack

FAR CRY 5
  
Magnet ссылка

Дичь / Freaky (Кристофер Лэндон) [2020, Ужасы, комедия, UHD WEB-DL 2160p] DUB [Line] pb.wtf

Дичь через торрент pb.wtf

Размер: 11.35 GB | Добавлен: 1 год 8 мес. назад | Торрент скачан:275 раз
Смотреть онлайн Дичь | Скачать    Ребята, помогите собрать деньги на оплату серверов!!!

08-12-2020 20:17 Дичь Скачать торрент  

Дичь | Freaky
Год выпуска: 2020
Страна: США
Студия: Blumhouse Productions, Divide/Conquer
Жанр: Ужасы, комедия
Продолжительность: 01:42:04
Перевод: Дублированный | Line
Субтитры: Английские

Режиссер: Кристофер Лэндон

rating


В ролях: Кэтрин Ньютон, Винс Вон, Алан Рак, Кэти Финнеран, Митчелл Хуг, Юрайа Шелтон, Миша Ошерович, Николас Старгел, Келли Ламор Уилсон, Дэна Дрори

Описание: В результате странного инцидента старшеклассница меняется телами с серийным убийцей. У неё есть меньше 24 часов, чтобы всё исправить, после чего ситуацию будет уже не обратить.

Качество: UHD WEB-DL 2160p
Формат: MKV

Видео: MPEG-H HEVC, HDR, 3840x2160 (16:9), 23.976 fps, 15.0 Mb/s, 10 Bit
Аудио 1: AC3, 48.0 kHz, 2 ch, 256 kb/s | RUS
Аудио 2: E-AC3, 48.0 kHz, 6 ch, 640 kb/s | ENG
скриншот  скриншот  скриншот  скриншот  

General
Unique ID : 254038110967904107400009952233398716336 (0xBF1DF5E2DC44F010A15E131EE193C7B0)
Complete name : Freaky.2020.WEB-DL.2160p.HDR.mkv
Format : Matroska
Format version : Version 4
File size : 11.4 GiB
Duration : 1 h 42 min
Overall bit rate : 15.9 Mb/s
Encoded date : UTC 2020-12-08 19:05:08
Writing application : mkvmerge v8.3.0 ('Over the Horizon') 64bit
Writing library : libebml v1.3.1 + libmatroska v1.4.2

Video
ID : 1
Format : HEVC
Format/Info : High Efficiency Video Coding
Format profile : Main [email protected]@Main
Codec ID : V_MPEGH/ISO/HEVC
Duration : 1 h 42 min
Bit rate : 15.0 Mb/s
Width : 3 840 pixels
Height : 2 160 pixels
Display aspect ratio : 16:9
Frame rate mode : Constant
Frame rate : 23.976 (24000/1001) FPS
Color space : YUV
Chroma subsampling : 4:2:0 (Type 2)
Bit depth : 10 bits
Bits/(Pixel*Frame) : 0.076
Stream size : 10.7 GiB (94%)
Default : Yes
Forced : No
Color range : Limited
Color primaries : BT.2020
Transfer characteristics : PQ
Matrix coefficients : BT.2020 non-constant
Maximum Content Light Level : 1000 cd/m2
Maximum Frame-Average Light Level : 106 cd/m2

Audio #1
ID : 2
Format : AC-3
Format/Info : Audio Coding 3
Commercial name : Dolby Digital
Codec ID : A_AC3
Duration : 1 h 42 min
Bit rate mode : Constant
Bit rate : 256 kb/s
Channel(s) : 2 channels
Channel layout : L R
Sampling rate : 48.0 kHz
Frame rate : 31.250 FPS (1536 SPF)
Bit depth : 16 bits
Compression mode : Lossy
Stream size : 187 MiB (2%)
Title : DUB / Line
Language : Russian
Service kind : Complete Main
Default : Yes
Forced : No

Audio #2
ID : 3
Format : E-AC-3
Format/Info : Enhanced AC-3
Commercial name : Dolby Digital Plus
Codec ID : A_EAC3
Duration : 1 h 42 min
Bit rate mode : Constant
Bit rate : 640 kb/s
Channel(s) : 6 channels
Channel layout : L R C LFE Ls Rs
Sampling rate : 48.0 kHz
Frame rate : 31.250 FPS (1536 SPF)
Compression mode : Lossy
Stream size : 467 MiB (4%)
Language : English
Service kind : Complete Main
Default : No
Forced : No

Text
ID : 4
Format : UTF-8
Codec ID : S_TEXT/UTF8
Codec ID/Info : UTF-8 Plain Text
Duration : 1 h 35 min
Bit rate : 52 b/s
Count of elements : 1284
Stream size : 36.4 KiB (0%)
Language : English
Default : No
Forced : No

pb.wtf



Скачать Дичь через торрент https://b.radikal.ru/b13/2012/56/cc2237313964.jpg Скачать, смотреть онлайн Дичь бесплантно в хорошем качестве Описание: В результате странного инцидента старшеклассница меняется телами с серийным убийцей. У неё есть меньше 24 часов, чтобы всё ... 10 10 6
Info! Золотая раздача, скачанное не засчитывается.
Торрент: Зарегистрирован [2020-12-08 20:17] · скачан: 275 раз
Статус: T временная
Размер: 11.35 GB
Как cкачать? Как скачать Дичь через торрент | UTorrent

% Раздел Тема Автор DL S | L
Фильмы (Blu-ray, BD-Remux, HDDVD) [ 29.6 GB ] Дичь / Freaky [2020 BD Remux 1080p] DUB [] bober100 Скачать
1 | 0
Фильмы (WEB-DL 720p, 1080p) [ 7.31 GB ] Дичь / Freaky [2020 WEB-DL 1080p] bober100 Скачать
1 | 0
Фильмы [HD 720p, 1080p] (Хороший звук DUB, MVO) [ 5.94 GB ] Дичь / Freaky [2020 BDRip 720p] DUB [] bober100 Скачать
1 | 0
Фильмы (Blu-ray, BD-Remux, HDDVD) [ 28.16 GB ] Дичь / Freaky [2020 BD Remux 1080p] bober100 Скачать
2 | 0
Фильмы [HD 720p, 1080p] (Хороший звук DUB, MVO) [ 14.47 GB ] Дичь / Freaky [2020 BDRip 1080p] DUB [] bober100 Скачать
1 | 0
Фильмы 2019-2020 [DVDrip, WEB-DLRip, HDrip] (DUB, MVO) [ 1.46 GB ] Дичь / Freaky [2020 BDRip] - Twi7ter Скачать
11 | 0
Фильмы 2019-2020 [DVDrip, WEB-DLRip, HDrip] (DUB, MVO) [ 746 MB ] Дичь / Freaky [2020 BDRip] DUB [] bober100 Скачать
1 | 0

28-11-2019 20:33  

Отключить вcю реклaмy на сайте

19-12-2020 18:22 Дичь Скачать торрент  

Звук полное дерьмо, буду ждать норм озвучкиpb.wtf



    Дорогой пользователь! Огромная просьба, поблагодарите релизера, оцените раздачу и оставьте свои комментарий, если Вы скачали Дичь через торрент бесплатно!
    Комментировать посты могут только пользователи прошедшие не сложную регистрацию
    Показать сообщения:    

    Дичь через торрент
    Скачать бесплатно Дичь
    Дичь скачать торрент
    Дичь смотреть онлайн
    Cкачать фильм Дичь бесплатно
    Дичь скачать торрент в хорошем качестве
    Дичь смотреть онлайн бесплатно в хорошем качестве


    Вы не можете начинать темы
    Вы не можете отвечать на сообщения
    Вы не можете редактировать свои сообщения
    Вы не можете удалять свои сообщения
    Вы не можете голосовать в опросах
    Вы не можете прикреплять файлы к сообщениям
    Вы можете скачивать файлы