Доктор Стрэндж

Лицензия

Добыча

MVO

Дом дракона

1 сезон

Тор

Лицензия

Мэверик

Лицензия

Там, где раки поют

MVO

Властелин колец

1 сезон

Ultimate

pack

Рекомендуем

30

Repack

ВАЖНО

ВАЖНО

Ghostwire

RePack

jed

RePack

nioh2

RePack

RDR2

RePack

NEED FOR SPEED™ PAYBACK

RePack

скачать торрент

Кинопоиск HD

Острые козырьки 6 сезон

6 сезон

FAR CRY 6

RePack

скачать торрент

Лицензия

скачать торрент

MVO

1

1 сезон

скачать торрент

1 сезон

скачать торрент

Лицензия

  

Невероятная история Острова роз / L'incredibile storia dell'isola delle rose (Сидней Сибилиа) [2020, Драма, комедия, WEB-DL 1080p] DUB [Пифагор / Netflix]

Невероятная история Острова роз через торрент pb.wtf

Размер: 4.5 GB | Добавлен: 1 год 9 мес. назад | Торрент скачан:109 раз
Смотреть онлайн Невероятная история Острова роз | Скачать   

09-12-2020 09:33 Невероятная история Острова роз Скачать торрент  

Невероятная история Острова роз | L'incredibile storia dell'isola delle rose
Год выпуска: 2020
Страна: Италия
Студия: Groenlandia
Жанр: Драма, комедия
Продолжительность: 01:58:56
Перевод: Дублированный | Пифагор по заказу Netflix
Субтитры: Русские (Forced, full), английские

Режиссер: Сидней Сибилиа

rating

В ролях: Элио Джермано, Матильда Де Анхелис, Фабрицио Бентивольо, Лука Дзингаретти, Франсуа Клюзе, Том Влашиха, Леонардо Лиди, Альберто Асторри, Виолетта Дзирони, Асканио Бальбо

Описание: История независимого государства под названием Остров роз, основанного инженером Джорджо Роза в 1968 году у побережья Римини.

Качество: WEB-DL 1080p
Формат: MKV

Видео: MPEG-4 AVC, 1920x1080, 3535 Kbit/s, 24.000 fps
Аудио #01: 48 kHz, E-AC3, 5.1, 640 Kbps | Netflix | RUS |
Аудио #02: 48 kHz, AC3, 5.1, 640 Kbps | Netflix | RUS |
Аудио #03: 48 kHz, E-AC3, 5.1, 640 Kbps | Оригинал | ENG |
скриншот  скриншот  скриншот  скриншот  скриншот  

General
Unique ID : 205588290091320307360448578295268931771 (0x9AAADD49FD0BE1BC5CD4B956CDF478BB)
Complete name : E:VideoFirstRose.Island.2020.NF.WEB-DL.1080p.seleZen.mkv
Format : Matroska
Format version : Version 4
File size : 4.50 GiB
Duration : 1 h 58 min
Overall bit rate mode : Variable
Overall bit rate : 5 416 kb/s
Movie name : Rose Island 2020 from seleZen
Encoded date : UTC 2020-12-09 08:46:06
Writing application : mkvmerge v40.0.0 ('Old Town Road + Pony') 64-bit
Writing library : libebml v1.3.9 + libmatroska v1.5.2

Video
ID : 1
Format : AVC
Format/Info : Advanced Video Codec
Format profile : [email protected]
Format settings : CABAC / 3 Ref Frames
Format settings, CABAC : Yes
Format settings, Reference : 3 frames
Codec ID : V_MPEG4/ISO/AVC
Duration : 1 h 58 min
Bit rate mode : Variable
Bit rate : 3 535 kb/s
Maximum bit rate : 7 305 kb/s
Width : 1 920 pixels
Height : 1 080 pixels
Display aspect ratio : 16:9
Frame rate mode : Constant
Frame rate : 24.000 FPS
Color space : YUV
Chroma subsampling : 4:2:0
Bit depth : 8 bits
Scan type : Progressive
Bits/(Pixel*Frame) : 0.071
Stream size : 2.90 GiB (64%)
Writing library : x264 core 148 r2722 1b0121b
Encoding settings : cabac=1 / ref=3 / deblock=1:0:0 / analyse=0x1:0x111 / me=umh / subme=10 / psy=1 / psy_rd=1.00:0.00 / mixed_ref=1 / me_range=24 / chroma_me=1 / trellis=2 / 8x8dct=0 / cqm=0 / deadzone=21,11 / fast_pskip=1 / chroma_qp_offset=-2 / threads=6 / lookahead_threads=1 / sliced_threads=0 / nr=0 / decimate=1 / interlaced=0 / bluray_compat=0 / stitchable=1 / constrained_intra=0 / bframes=2 / b_pyramid=0 / b_adapt=2 / b_bias=0 / direct=3 / weightb=1 / open_gop=0 / weightp=2 / keyint=250 / keyint_min=24 / scenecut=0 / intra_refresh=0 / rc_lookahead=48 / rc=2pass / mbtree=1 / bitrate=3535 / ratetol=1.0 / qcomp=0.50 / qpmin=6 / qpmax=51 / qpstep=4 / cplxblur=20.0 / qblur=0.5 / vbv_maxrate=7305 / vbv_bufsize=9740 / nal_hrd=vbr / filler=0 / ip_ratio=1.40 / aq=1:1.00
Language : English
Default : Yes
Forced : No

Audio #1
ID : 2
Format : E-AC-3
Format/Info : Enhanced AC-3
Commercial name : Dolby Digital Plus
Codec ID : A_EAC3
Duration : 1 h 58 min
Bit rate mode : Constant
Bit rate : 640 kb/s
Channel(s) : 6 channels
Channel layout : L R C LFE Ls Rs
Sampling rate : 48.0 kHz
Frame rate : 31.250 FPS (1536 SPF)
Compression mode : Lossy
Stream size : 544 MiB (12%)
Title : Dub
Language : Russian
Service kind : Complete Main
Default : Yes
Forced : Yes

Audio #2
ID : 3
Format : AC-3
Format/Info : Audio Coding 3
Commercial name : Dolby Digital
Codec ID : A_AC3
Duration : 1 h 58 min
Bit rate mode : Constant
Bit rate : 640 kb/s
Channel(s) : 6 channels
Channel layout : L R C LFE Ls Rs
Sampling rate : 48.0 kHz
Frame rate : 31.250 FPS (1536 SPF)
Compression mode : Lossy
Stream size : 544 MiB (12%)
Title : Dub
Language : Russian
Service kind : Complete Main
Default : No
Forced : No

Audio #3
ID : 4
Format : E-AC-3
Format/Info : Enhanced AC-3
Commercial name : Dolby Digital Plus
Codec ID : A_EAC3
Duration : 1 h 58 min
Bit rate mode : Constant
Bit rate : 640 kb/s
Channel(s) : 6 channels
Channel layout : L R C LFE Ls Rs
Sampling rate : 48.0 kHz
Frame rate : 31.250 FPS (1536 SPF)
Compression mode : Lossy
Stream size : 544 MiB (12%)
Title : English
Language : English
Service kind : Complete Main
Default : No
Forced : No

Text #1
ID : 5
Format : UTF-8
Codec ID : S_TEXT/UTF8
Codec ID/Info : UTF-8 Plain Text
Duration : 1 h 57 min
Bit rate : 5 b/s
Count of elements : 98
Stream size : 5.01 KiB (0%)
Title : Forced
Language : Russian
Default : Yes
Forced : Yes

Text #2
ID : 6
Format : UTF-8
Codec ID : S_TEXT/UTF8
Codec ID/Info : UTF-8 Plain Text
Duration : 1 h 57 min
Bit rate : 100 b/s
Count of elements : 1459
Stream size : 86.3 KiB (0%)
Title : Russian
Language : Russian
Default : No
Forced : No

Text #3
ID : 7
Format : UTF-8
Codec ID : S_TEXT/UTF8
Codec ID/Info : UTF-8 Plain Text
Duration : 1 h 51 min
Bit rate : 67 b/s
Count of elements : 1500
Stream size : 55.3 KiB (0%)
Title : English
Language : English
Default : No
Forced : No




Скачать Невероятная история Острова роз через торрент https://i114.fastpic.ru/big/2020/1209/c6/3074af13160a662491c6a9848a7772c6.jpg Скачать, смотреть онлайн Невероятная история Острова роз бесплантно в хорошем качестве Описание: История независимого государства под названием Остров роз, основанного инженером Джорджо Роза в 1968 году у побережья ... 10 10 3
Торрент: Зарегистрирован [2020-12-09 09:33] · скачан: 109 раз
Статус: √ проверено
Размер: 4.5 GB
Как cкачать? Как скачать Невероятная история Острова роз через торрент | UTorrent

% Раздел Тема Автор DL S | L
Фильмы 2019-2020 [DVDrip, WEB-DLRip, HDrip] (DUB, MVO) [ 2.03 GB ] Невероятная история Острова роз / L'incredibile storia dell'isola delle rose | DUB | DLRip-AVC Lithuania Скачать
1 | 0
Фильмы 2019-2020 [DVDrip, WEB-DLRip, HDrip] (DUB, MVO) [ 2.19 GB ] Невероятная история Острова роз / L'incredibile storia dell'isola delle rose | Пифагор | DLRip bober100 Скачать
1 | 0
Фильмы 2019-2020 [DVDrip, WEB-DLRip, HDrip] (DUB, MVO) [ 1.46 GB ] Невероятная история Острова роз / L'incredibile storia dell'isola delle rose | Пифагор | DLRip bober100 Скачать
1 | 0
Фильмы (WEB-DL 720p, 1080p) [ 3.24 GB ] Невероятная история Острова роз / L'incredibile storia dell'isola delle rose | Пифагор | 720p bober100 Скачать
1 | 0

28-11-2019 20:33  

Отключить вcю реклaмy на сайте

19-12-2020 17:04 Невероятная история Острова роз Скачать торрент  

Нету руской озвучки



    Дорогой пользователь! Огромная просьба, поблагодарите релизера, оцените раздачу и оставьте свои комментарий, если Вы скачали Невероятная история Острова роз через торрент бесплатно!!
    Комментировать посты могут только пользователи прошедшие не сложную регистрацию
    Показать сообщения:    


    Невероятная история Острова роз через торрент
    Скачать бесплатно Невероятная история Острова роз
    Невероятная история Острова роз скачать торрент
    Невероятная история Острова роз смотреть онлайн
    Cкачать фильм Невероятная история Острова роз бесплатно
    Невероятная история Острова роз скачать торрент в хорошем качестве
    Невероятная история Острова роз смотреть онлайн бесплатно в хорошем качестве
    Вы не можете начинать темы
    Вы не можете отвечать на сообщения
    Вы не можете редактировать свои сообщения
    Вы не можете удалять свои сообщения
    Вы не можете голосовать в опросах
    Вы не можете прикреплять файлы к сообщениям
    Вы можете скачивать файлы