2 сезон

iTunes

MVO

1

2 сезон

iTunes

iTunes

1 сезон

RePack

30

Ultimate

ВАЖНО

ИГРА 18+

pack

RePack

MK11
pack

Легкие деньги

RePack

jed

RePack

fifa19

RePack

RDR2

RePack

NEED FOR SPEED™ PAYBACK

4 сезон

9 сезон

Бесстыжие 9 сезон

Все сериалы

все сериалы на PB.wtf

RePack

FAR CRY 5

Anonymous, добрый вечер, мы не успеваем собрать деньги на оплату серверов за декабрь и январь, помогите нам пожалуйста в это трудное время. В качестве благодарности мы отключим Вам всю рекламу на сайте (укажите свой ник в строку Ваше имя)!

×
  
Magnet ссылка

Путешествие на Запад: Демоны в 3Д / Journey to the West: Demon Chapter 3D (Цуй Харк / Tsui Hark) [2017, фэнтези, комедия, приключения, BDRip, 1080p] OverUnder / Вертикальная стереопара (MVO) pb.wtf

Путешествие на Запад: Демоны в 3Д через торрент pb.wtf

Размер: 26.04 GB | Добавлен: 1 мес. 8 д. назад | Торрент скачан:5 раз
Скачать  

09-12-2020 13:31 Путешествие на Запад: Демоны в 3Д Скачать торрент  

Путешествие на Запад: Демоны / Journey to the West: Demon Chapter / Xi you fu yao pian

Год выпуска: 2017
Страна: Китай
Жанр: фэнтези, комедия, приключения
Продолжительность: 01:48:29

Перевод: Любительский многоголосый закадровый (Синема УС)
Русские субтитры: нет
Режиссер на русском: Цуй Харк / Tsui Hark

В ролях: Крис У, Кенни Линь, Яо Чэнь, Джелли Линь, Ян Ивэй, Менге Батыр, Ван Ликунь, Бао Бэйэр, Тони Ван, Да Пэн

Описание: Путешествие за священными писаниями продолжается. Иногда монаху Тан Саньцзану снится, что их цель достигнута, и он получает вознаграждение от Богов. Но в реальности всё гораздо печальней: ради пропитания необычной компании приходится веселить базарную публику, а монаху - ещё и следить, чтобы Царь обезьян не зашиб ненароком кого-нибудь из селян. Отношения между этими двумя не особо тёплые и основаны на взаимном шантаже и угрозах, но хитрые демоны не дремлют и так и норовят напасть на путников, поэтому монаху, Царю обезьян, свинье и речному дракону лучше держаться вместе.

Сэмпл: http://sendfile.su/1587249

Качество: BDrip, 1080p
Контейнер: MKV
Формат 3D: OverUnder / Вертикальная стереопара
Порядок ракурсов: левый ракурс первый
Видео кодек: x264
Аудио кодек: AC3
Видео: AVC / High@L5.0 / 23,976 fps / 1920х2160 / 33,0 Мбит/сек
Аудио: Русский / AC3 / 48 KHz / 5.1 ch / 640 Кбит/сек(MVO - Синема УС) (перемонтаж стерео в 5.1 - Ash61)

Дополнительная информация по релизу: Русская дорога получена вставкой синхронизированных вырезанных фраз в центр оригинала.

ВНИМАНИЕ ! На встроенных ТВ-плеерах работать не будет!!!

ТВ Samsung в названии которого есть надпись Ultra HD , и LG Ultra HD 800 серии, LG C6P, Xiaomi Mi TV 2, GRUNDIG VLE 8474 BL воспроизводят полные стереопары встроенными плеерами
Железные плееры на которых воспроизводятся полные стереопары:Popcorn C-200, Popcorn a-400, Dune HD Smart D1 , Dune HD DUO , Dune HD Smart H1 , Dune HD Smart B1 , Dune HD Max , Dune HD TV-303D, Dune HD TV-102, Dune HD Base 3D, Philips HMP7001, Aura HD, MECOOL BB2, Zidoo x9s, Lake I Cloud, MiBox 3
Чтобы изображение было на весь экран в плеере выставляем, если рип 1920х1600 - то выставляем 2.35:1 , если 1920х2160 - то выставляем 16:9
Общее
Уникальный идентификатор : 253923449733363136157802578789294344379 (0xBF07E0A69DB540338D482D83D87B08BB)
Полное имя : F:\Iso\Journey to the West Demon Chapter.Rip by SeRoGa00.mkv
Формат : Matroska
Версия формата : Version 2
Размер файла : 26,0 Гбайт
Продолжительность : 1 ч. 48 м.
Общий поток : 34,4 Мбит/сек
Дата кодирования : UTC 2020-12-08 13:46:22
Программа кодирования : mkvmerge v3.4.0 ('Rapunzel') сборка от May 15 2010 09:38:20
Библиотека кодирования : libebml v0.8.0 + libmatroska v0.9.0

Видео
Идентификатор : 1
Формат : AVC
Формат/Информация : Advanced Video Codec
Профиль формата : High@L5.0
Параметр CABAC формата : Да
Параметр ReFrames формата : 4 кадра
Идентификатор кодека : V_MPEG4/ISO/AVC
Продолжительность : 1 ч. 48 м.
Битрейт : 33,0 Мбит/сек
Ширина : 1920 пикселей
Высота : 2160 пикселей
Соотношение сторон : 0,889
Частота кадров : 23,976 кадра/сек
Цветовое пространство : YUV
Субдискретизация насыщенности : 4:2:0
Битовая глубина : 8 бит
Тип развёртки : Прогрессивная
Бит/(Пиксели*Кадры) : 0.332
Размер потока : 25,0 Гбайт (96%)
Заголовок : Rip by SeRoGa00
Библиотека кодирования : x264 core 157 r2969 d4099dd
Настройки программы : cabac=1 / ref=4 / deblock=1:-3:-3 / analyse=0x3:0x113 / me=umh / subme=10 / psy=1 / psy_rd=1.00:0.15 / mixed_ref=1 / me_range=24 / chroma_me=1 / trellis=2 / 8x8dct=1 / cqm=0 / deadzone=21,11 / fast_pskip=1 / chroma_qp_offset=-3 / threads=18 / lookahead_threads=6 / sliced_threads=0 / nr=0 / decimate=0 / interlaced=0 / bluray_compat=0 / constrained_intra=0 / bframes=10 / b_pyramid=2 / b_adapt=2 / b_bias=0 / direct=3 / weightb=1 / open_gop=0 / weightp=2 / keyint=250 / keyint_min=23 / scenecut=40 / intra_refresh=0 / rc_lookahead=60 / rc=crf / mbtree=1 / crf=16.5 / qcomp=0.60 / qpmin=10 / qpmax=69 / qpstep=4 / vbv_maxrate=40000 / vbv_bufsize=40000 / crf_max=0.0 / nal_hrd=none / filler=0 / ip_ratio=1.40 / aq=1:1.00
Язык : English
Default : Нет
Forced : Нет

Аудио
Идентификатор : 2
Формат : AC-3
Формат/Информация : Audio Coding 3
Расширение режима : CM (complete main)
Параметр Endianness формата : Big
Идентификатор кодека : A_AC3
Продолжительность : 1 ч. 48 м.
Вид битрейта : Постоянный
Битрейт : 640 Кбит/сек
Каналы : 6 каналов
Расположение каналов : Front: L C R, Side: L R, LFE
Частота : 48,0 КГц
Битовая глубина : 16 бит
Метод сжатия : С потерями
Размер потока : 497 Мбайт (2%)
Язык : Russian
Default : Да
Forced : Нет

Меню
00:00:00.000 : :1
00:11:27.979 : :2
00:20:12.086 : :3
00:30:57.939 : :4
00:39:09.806 : :5
00:46:19.694 : :6
00:55:13.060 : :7
01:03:23.633 : :8
01:13:11.804 : :9
01:22:17.432 : :10
01:29:55.682 : :11
01:39:31.841 : :12
скриншот  

скриншот  

скриншот  

скриншот  

скриншот  

скриншот  

скриншот  

скриншот  
pb.wtf



Скачать Путешествие на Запад: Демоны в 3Д через торрент https://a.radikal.ru/a09/2012/f5/8689a6c4f2ee.png Скачать фильм Путешествие на Запад: Демоны в 3Д через торрент бесплантно в хорошем качестве Описание: Путешествие за священными писаниями продолжается. Иногда монаху Тан Саньцзану снится, что их цель достигнута, и он получает ... 5 10 1
Торрент: Зарегистрирован [2020-12-09 13:31] · скачан: 5 раз
Статус: √ проверено
Размер: 26.04 GB
Как cкачать? Как скачать Путешествие на Запад: Демоны в 3Д через торрент | UTorrent

28-11-2019 20:33  

Отключить всю рекламу на сайте

    Дорогой пользователь! Огромная просьба, поблагодарите релизера, оцените раздачу и оставьте свои комментарий, если Вы скачали Путешествие на Запад: Демоны в 3Д через торрент бесплатно! Внесите свою лепту в развитие PiratBit!
    Комментировать посты могут только пользователи прошедшие не сложную регистрацию
    Показать сообщения:    

    Путешествие на Запад: Демоны в 3Д через торрент
    Скачать бесплатно Путешествие на Запад: Демоны в 3Д
    Путешествие на Запад: Демоны в 3Д скачать торрент
    Путешествие на Запад: Демоны в 3Д смотреть онлайн
    Cкачать фильм Путешествие на Запад: Демоны в 3Д бесплатно
    Путешествие на Запад: Демоны в 3Д скачать торрент в хорошем качестве
    Путешествие на Запад: Демоны в 3Д смотреть онлайн бесплатно в хорошем качестве


    Вы не можете начинать темы
    Вы не можете отвечать на сообщения
    Вы не можете редактировать свои сообщения
    Вы не можете удалять свои сообщения
    Вы не можете голосовать в опросах
    Вы не можете прикреплять файлы к сообщениям
    Вы можете скачивать файлы