Лицензия

MVO

1

1 сезон

Лицензия

Лицензия

13

MVO

1 сезон

Deluxe Edition

pack

Рекомендуем

30

Repack

ВАЖНО

ВАЖНО

Ghostwire

RePack

jed

RePack

fifa19

RePack

RDR2

RePack

NEED FOR SPEED™ PAYBACK

RePack

Кинопоиск HD

 Острые козырьки 6 сезон

6 сезон

FAR CRY 6

RePack

Лицензия

MVO

1

1 сезон

1 сезон

Лицензия

  

Выпускной / The Prom (Райан Мёрфи) [2020, мюзикл, драма, комедия, WEB-DL 720p] DUB [Netflix]

Выпускной через торрент pb.wtf

Размер: 3.3 GB | Добавлен: 1 год 9 мес. назад | Торрент скачан:7 раз
Смотреть онлайн Выпускной | Скачать   

11-12-2020 15:07 Выпускной Скачать торрент  

Выпускной | The Prom
Год выпуска: 2020
Страна: США
Студия: NetFlix, Ryan Murphy Productions
Жанр: мюзикл, драма, комедия
Продолжительность: 02:12:19
Перевод: Дублированный | Netflix
Субтитры: Русские (Forced, full), английские

Режиссер: Райан Мёрфи

rating

В ролях: Николь Кидман, Мэрил Стрип, Кигэн-Майкл Ки, Керри Вашингтон, Джеймс Корден, Эндрю Рэннеллс, Кевин Чэмберлин, Мэри Кэй Плэйс, Джо Эллен Пеллман, Трейси Ульман

Описание: В консервативном городке Эджуотер штата Индиана местной школьнице-лесбиянке не позволяют привести свою девушку на выпускной. Тем временем вышедшие в тираж звёзды Бродвея хотят помочь ей, но в первую очередь рассчитывают привлечь к себе внимание прессы.

Качество: WEB-DL 720p
Формат: MKV

Видео: MPEG-4 AVC, 1280x720, 2164 Kbit/s, 24.000 fps
Аудио #01: 48 kHz, E-AC3, 5.1, 640 Kbps | Netflix | RUS |
Аудио #02: 48 kHz, E-AC3+Atmos, 5.1, 768 Kbps | Оригинал | ENG |
скриншот  скриншот  скриншот  скриншот  скриншот  

General
Unique ID : 71967115835849701657407754419468434384 (0x36245CC24F84DAC02D65238B8CC6FBD0)
Complete name : E:VideoFirstThe.Prom.2020.NF.WEB-DL.720p.seleZen.mkv
Format : Matroska
Format version : Version 4
File size : 3.30 GiB
Duration : 2 h 12 min
Overall bit rate mode : Variable
Overall bit rate : 3 574 kb/s
Movie name : The.Prom.2020 from seleZen
Encoded date : UTC 2020-12-11 08:29:12
Writing application : mkvmerge v40.0.0 ('Old Town Road + Pony') 64-bit
Writing library : libebml v1.3.9 + libmatroska v1.5.2

Video
ID : 1
Format : AVC
Format/Info : Advanced Video Codec
Format profile : [email protected]
Format settings : CABAC / 3 Ref Frames
Format settings, CABAC : Yes
Format settings, Reference : 3 frames
Codec ID : V_MPEG4/ISO/AVC
Duration : 2 h 12 min
Bit rate mode : Variable
Bit rate : 2 164 kb/s
Nominal bit rate : 2 325 kb/s
Maximum bit rate : 5 220 kb/s
Width : 1 280 pixels
Height : 720 pixels
Display aspect ratio : 16:9
Frame rate mode : Constant
Frame rate : 24.000 FPS
Color space : YUV
Chroma subsampling : 4:2:0
Bit depth : 8 bits
Scan type : Progressive
Bits/(Pixel*Frame) : 0.098
Stream size : 2.00 GiB (61%)
Writing library : x264 core 148 r2722 1b0121b
Encoding settings : cabac=1 / ref=3 / deblock=1:0:0 / analyse=0x1:0x111 / me=umh / subme=10 / psy=1 / psy_rd=1.00:0.00 / mixed_ref=1 / me_range=24 / chroma_me=1 / trellis=2 / 8x8dct=0 / cqm=0 / deadzone=21,11 / fast_pskip=1 / chroma_qp_offset=-2 / threads=6 / lookahead_threads=1 / sliced_threads=0 / nr=0 / decimate=1 / interlaced=0 / bluray_compat=0 / stitchable=1 / constrained_intra=0 / bframes=2 / b_pyramid=0 / b_adapt=2 / b_bias=0 / direct=3 / weightb=1 / open_gop=0 / weightp=2 / keyint=250 / keyint_min=24 / scenecut=0 / intra_refresh=0 / rc_lookahead=48 / rc=2pass / mbtree=1 / bitrate=2325 / ratetol=1.0 / qcomp=0.50 / qpmin=6 / qpmax=51 / qpstep=4 / cplxblur=20.0 / qblur=0.5 / vbv_maxrate=5220 / vbv_bufsize=6960 / nal_hrd=vbr / filler=0 / ip_ratio=1.40 / aq=1:1.00
Language : English
Default : Yes
Forced : No

Audio #1
ID : 2
Format : E-AC-3
Format/Info : Enhanced AC-3
Commercial name : Dolby Digital Plus
Codec ID : A_EAC3
Duration : 2 h 12 min
Bit rate mode : Constant
Bit rate : 640 kb/s
Channel(s) : 6 channels
Channel layout : L R C LFE Ls Rs
Sampling rate : 48.0 kHz
Frame rate : 31.250 FPS (1536 SPF)
Compression mode : Lossy
Stream size : 606 MiB (18%)
Title : Dub
Language : Russian
Service kind : Complete Main
Default : Yes
Forced : Yes

Audio #2
ID : 3
Format : E-AC-3 JOC
Format/Info : Enhanced AC-3 with Joint Object Coding
Commercial name : Dolby Digital Plus with Dolby Atmos
Codec ID : A_EAC3
Duration : 2 h 12 min
Bit rate mode : Constant
Bit rate : 768 kb/s
Channel(s) : 6 channels
Channel layout : L R C LFE Ls Rs
Sampling rate : 48.0 kHz
Frame rate : 31.250 FPS (1536 SPF)
Compression mode : Lossy
Stream size : 727 MiB (21%)
Title : English
Language : English
Service kind : Complete Main
Default : No
Forced : No
Complexity index : 16
Number of dynamic objects : 15
Bed channel count : 1 channel
Bed channel configuration : LFE

Text #1
ID : 4
Format : UTF-8
Codec ID : S_TEXT/UTF8
Codec ID/Info : UTF-8 Plain Text
Duration : 2 h 10 min
Bit rate : 1 b/s
Count of elements : 30
Stream size : 1.27 KiB (0%)
Title : Forced
Language : Russian
Default : Yes
Forced : Yes

Text #2
ID : 5
Format : UTF-8
Codec ID : S_TEXT/UTF8
Codec ID/Info : UTF-8 Plain Text
Duration : 2 h 10 min
Bit rate : 103 b/s
Count of elements : 1969
Stream size : 99.2 KiB (0%)
Title : Russian
Language : Russian
Default : No
Forced : No

Text #3
ID : 6
Format : UTF-8
Codec ID : S_TEXT/UTF8
Codec ID/Info : UTF-8 Plain Text
Duration : 2 h 10 min
Bit rate : 85 b/s
Count of elements : 2234
Stream size : 81.9 KiB (0%)
Title : English [SDH]
Language : English
Default : No
Forced : No




Скачать Выпускной через торрент https://b.radikal.ru/b02/2012/f4/20d564449db3.jpg Скачать, смотреть онлайн Выпускной бесплантно в хорошем качестве Описание: В консервативном городке Эджуотер штата Индиана местной школьнице-лесбиянке не позволяют привести свою девушку на выпускной. Тем ... 10 10 2
Торрент: Зарегистрирован [2020-12-11 15:07] · скачан: 7 раз
Статус: √ проверено
Размер: 3.3 GB
Как cкачать? Как скачать Выпускной через торрент | UTorrent

% Раздел Тема Автор DL S | L
Фильмы (WEB-DL 720p, 1080p) [ 4.7 GB ] Выпускной / The Prom | DUB | 1080p bober100 Скачать
1 | 0
Фильмы 2019-2020 [DVDrip, WEB-DLRip, HDrip] (DUB, MVO) [ 2.18 GB ] Выпускной / The Prom | DUB | DLRip bober100 Скачать
1 | 0
Фильмы 2019-2020 [DVDrip, WEB-DLRip, HDrip] (DUB, MVO) [ 1.45 GB ] Выпускной / The Prom | DUB | DLRip-AVC Lithuania Скачать
1 | 0

28-11-2019 20:33  

Отключить вcю реклaмy на сайте

    Дорогой пользователь! Огромная просьба, поблагодарите релизера, оцените раздачу и оставьте свои комментарий, если Вы скачали Выпускной через торрент бесплатно!!
    Комментировать посты могут только пользователи прошедшие не сложную регистрацию
    Показать сообщения:    


    Выпускной через торрент
    Скачать бесплатно Выпускной
    Выпускной скачать торрент
    Выпускной смотреть онлайн
    Cкачать фильм Выпускной бесплатно
    Выпускной скачать торрент в хорошем качестве
    Выпускной смотреть онлайн бесплатно в хорошем качестве
    Вы не можете начинать темы
    Вы не можете отвечать на сообщения
    Вы не можете редактировать свои сообщения
    Вы не можете удалять свои сообщения
    Вы не можете голосовать в опросах
    Вы не можете прикреплять файлы к сообщениям
    Вы можете скачивать файлы