2 сезон

iTunes

MVO

1

2 сезон

iTunes

iTunes

1 сезон

RePack

30

Новинка

ВАЖНО

ИГРА 18+

pack

RePack

MK11
pack

Легкие деньги

RePack

jed

RePack

fifa19

RePack

RDR2

RePack

NEED FOR SPEED™ PAYBACK

4 сезон

9 сезон

Бесстыжие 9 сезон

Все сериалы

все сериалы на PB.wtf

RePack

FAR CRY 5

Anonymous, доброе утро, мы не успеваем собрать деньги на оплату серверов за декабрь и январь, помогите нам пожалуйста в это трудное время. В качестве благодарности мы отключим Вам всю рекламу на сайте (укажите свой ник в строку Ваше имя)!

×
  
Magnet ссылка

Пришельцы из прошлого / Fremvandrerne / Сезон: 1 / Серии 1-6 из 6 (Йенс Лиен) [2019, Норвегия, Комедия, фантастика, драма, детектив, WEB-DLRip-AVC] MVO [Кириллица] pb.wtf

Пришельцы из прошлого через торрент pb.wtf

Раздают: 1 [ 0 KB/s ]
Размер: 3.86 GB | Добавлен: 1 мес. 5 д. назад | Торрент скачан:13 раз
Скачать  

13-12-2020 03:26 Пришельцы из прошлого Скачать торрент  

Пришельцы из прошлого / Fremvandrerne


  • Год выпуска: 2019
  • Страна: Норвегия
  • Жанр: Комедия, фантастика, драма, детектив
  • Продолжительность: ~ 00:45:00 (Серия)
  • Перевод: Профессиональный многоголосый [Кириллица]
  • Субтитры: Русские (Full (Кириллица))
  • Режиссер: Йенс Лиен
  • В ролях:
    Николай Клеве Брок, Аугуста Эва Эрлендсдоуттир, Йоуханнес Хёйкьюр Йоуханнессон, Криста Косонен, Веслемей Мёркрид, Элли Харбоа, Стиг Хенрик Хофф, Агнес Киттельсен, Камилла Роман, Миккель Братт Сильсет и др.
    Описание:


    В современном мире начинают появляться пришельцы из прошлого. Гости прибывают из каменного века, эпохи викингов и позднего XIX века. Они не знают, как здесь оказались, и не представляют, как вернуться назад. Спустя несколько лет сосуществования викинг Альфхильдр поступает на службу в полицию и вместе с местным детективом должна найти убийцу других пришельцев и попутно раскрыть причину их появления.
  • Рейтинг:

    rating


  • Качество: WEB-DLRip-AVC
  • Формат: :MKV
  • Видео кодек: AVC
  • Аудио кодек: AC3
  • Видео: 1561 Кбит/сек, 1024*576 (16:9), в 25,000 кадров/сек, AVC
  • Аудио: русский 448 Кбит/сек, 48,0 КГц, 16 бит, 6 каналов, AC-3|[Кириллица]|
    Внимание! Раздача ведётся путём добавления новых серий; при каждом добавлении создаётся новый торрент. Чтобы начать докачку новой серии, пользователям необходимо сделать следующее:
    (1) остановить скачивание,
    (2) удалить старый торрент у себя из клиента (старые серии удалять не надо),
    (3) скачать новый торрент и запустить его у себя в клиенте вместо старого, при этом указать клиенту путь в старую папку куда и должно происходить скачивание новых серий.

    Ваш клиент при этом должен произвести хеширование (проверку) старой папки (если не производит сам - помогите ему сделать это), и будет докачивать только те серии которых у вас ещё нет. Старые серии при этом не удаляются, а продолжают раздаваться!

    Eсли вы уже удалили старые серии, то предотвратить повторную закачку старых серий можно, отжав галочку в соответствующих местах при запуске нового торрента. По возможности, желательно не удалять старые серии как можно дольше чтобы релизёр не столько продолжал раздавать старые серии, а смог сконцентрироваться на новых.
    Общее
    Уникальный идентификатор : 305315040608344754335338367753682239514 (0xE5B189B4FD7F2219FC1FA97EF8C9401A)
    Полное имя : I:\Пришельцы из прошлого (Fremvandrerne) Сезон 1\Beforeigners.S01.E01.WEB-DLRip-AVC.Кириллица.mkv
    Формат : Matroska
    Версия формата : Version 4
    Размер файла : 699 Мбайт
    Продолжительность : 47 м. 41 с.
    Общий поток : 2050 Кбит/сек
    Программа кодирования : XviD4PSP 8.0.59
    Библиотека кодирования : Lavf58.20.100
    ErrorDetectionType : Per level 1
    ENCODING_INFO : MATROSKA,WEBM > MKV Пользовательский

    Видео
    Идентификатор : 1
    Формат : AVC
    Формат/Информация : Advanced Video Codec
    Профиль формата : High@L3.1
    Настройки формата : CABAC / 4 Ref Frames
    Параметр CABAC формата : Да
    Параметр RefFrames формата : 4 кадра
    Идентификатор кодека : V_MPEG4/ISO/AVC
    Продолжительность : 47 м. 41 с.
    Битрейт : 1561 Кбит/сек
    Номинальный битрейт : 1800 Кбит/сек
    Ширина : 1024 пикселя
    Высота : 576 пикселей
    Соотношение сторон : 16:9
    Режим частоты кадров : Постоянный
    Частота кадров : 25,000 кадров/сек
    Цветовое пространство : YUV
    Субдискретизация насыщенности : 4:2:0
    Битовая глубина : 8 бит
    Тип развёртки : Прогрессивная
    Бит/(Пиксели*Кадры) : 0.106
    Размер потока : 532 Мбайт (76%)
    Библиотека кодирования : x264 core 157 r2969 d4099dd
    Настройки программы : cabac=1 / ref=3 / deblock=1:-1:-1 / analyse=0x3:0x133 / me=hex / subme=7 / psy=1 / psy_rd=1.00:0.20 / mixed_ref=1 / me_range=16 / chroma_me=1 / trellis=1 / 8x8dct=1 / cqm=0 / deadzone=21,11 / fast_pskip=1 / chroma_qp_offset=-3 / threads=9 / lookahead_threads=1 / sliced_threads=0 / nr=0 / decimate=1 / interlaced=0 / bluray_compat=0 / constrained_intra=0 / bframes=3 / b_pyramid=2 / b_adapt=2 / b_bias=0 / direct=3 / weightb=1 / open_gop=0 / weightp=2 / keyint=250 / keyint_min=25 / scenecut=40 / intra_refresh=0 / rc_lookahead=40 / rc=cbr / mbtree=1 / bitrate=1800 / ratetol=1.0 / qcomp=0.60 / qpmin=0 / qpmax=69 / qpstep=4 / vbv_maxrate=1800 / vbv_bufsize=1285 / nal_hrd=none / filler=0 / ip_ratio=1.40 / aq=1:1.00
    Язык : Norwegian
    Default : Да
    Forced : Нет
    ENCODING_INFO : H264 > X264 CBR 1800kbps HQ

    Аудио
    Идентификатор : 2
    Формат : AC-3
    Формат/Информация : Audio Coding 3
    Коммерческое название : Dolby Digital
    Идентификатор кодека : A_AC3
    Продолжительность : 47 м. 41 с.
    Вид битрейта : Постоянный
    Битрейт : 448 Кбит/сек
    Каналы : 6 каналов
    ChannelLayout : L R C LFE Ls Rs
    Частота : 48,0 КГц
    Частота кадров : 31,250 кадров/сек (1536 SPF)
    Битовая глубина : 16 бит
    Метод сжатия : С потерями
    Размер потока : 153 Мбайт (22%)
    Язык : Russian
    ServiceKind/String : Complete Main
    Default : Да
    Forced : Нет
    ENCODING_INFO : AC3 > AC3 CBR 448kbps

    Текст
    Идентификатор : 3
    Формат : UTF-8
    Идентификатор кодека : S_TEXT/UTF8
    Идентификатор кодека/Информация : UTF-8 Plain Text
    Язык : Russian
    Default : Да
    Forced : Нет
    ENCODING_INFO : SUBRIP > SUBRIP





    Скриншоты:
    скриншот   скриншот   скриншот   скриншот   скриншот   скриншот   скриншот  
    скриншот  
    pb.wtf



  • Скачать Пришельцы из прошлого через торрент https://pic1.kartinco.top/images/12/e7e4q.jpg Скачать фильм Пришельцы из прошлого через торрент бесплантно в хорошем качестве Описание: В современном мире начинают появляться пришельцы из прошлого. Гости прибывают из каменного века, эпохи викингов и позднего XIX ... 5 10 1
    Торрент: Зарегистрирован [2020-12-14 00:09] · скачан: 13 раз
    Статус: √ проверено
    Размер: 3.86 GB
    Как cкачать? Как скачать Пришельцы из прошлого через торрент | UTorrent

    % Раздел Тема Автор DL S | L
    Зарубежные сериалы [ 3.89 GB ] Пришельцы из прошлого / Fremvandrerne / Beforeigners / Сезон: 1 / Серии: 1-6 из 6 [2019 WEB-DLRip] MVO [Кириллица] bober100 Скачать
    2 | 0
    Зарубежные сериалы [ 7.8 GB ] Пришельцы из прошлого / Fremvandrerne / Beforeigners / Сезон: 1 / Серии: 1-6 из 6 [2019 WEB-DL 1080p] MVO [Кириллица] GEKADOL Скачать
    2 | 0
    Зарубежные сериалы [ 3.6 GB ] Пришельцы из прошлого / Иммигранты / Fremvandrerne / Beforeigners / Сезон: 1 / Серии: 1-6 из 6 [2019 WEBRip] [MVO] killermax2013 Скачать
    2 | 0
    Зарубежные сериалы [ 9.06 GB ] Пришельцы из прошлого / Fremvandrerne / Beforeigners / Сезон: 1 / Серии: 1-6 из 6 [2019 Научная WEBRip 720p] DVO [Gears Media] bober100 Скачать
    1 | 0
    T Зарубежные сериалы [ 9.37 GB ] Пришельцы из прошлого / Fremvandrerne / Beforeigners / Сезон: 1 / Серии: 1-6 из 6 [2019 WEBRip 720p] MVO [Octopus] bober100 Скачать
    2 | 0


    Последний раз редактировалось: GEKADOL (2020-12-14 00:09), всего редактировалось 3 раз(а)

    28-11-2019 20:33  

    Отключить всю рекламу на сайте

    13-12-2020 04:25 Пришельцы из прошлого Скачать торрент  

    Топик был перенесен из форума Зарубежные сериалы в форум Оформление раздач (Наши, Зарубежные Сериалы)


    bober100pb.wtf



      Дорогой пользователь! Огромная просьба, поблагодарите релизера, оцените раздачу и оставьте свои комментарий, если Вы скачали Пришельцы из прошлого через торрент бесплатно! Внесите свою лепту в развитие PiratBit!
      Комментировать посты могут только пользователи прошедшие не сложную регистрацию
      Показать сообщения:    

      Пришельцы из прошлого через торрент
      Скачать бесплатно Пришельцы из прошлого
      Пришельцы из прошлого скачать торрент
      Пришельцы из прошлого смотреть онлайн
      Cкачать фильм Пришельцы из прошлого бесплатно
      Пришельцы из прошлого скачать торрент в хорошем качестве
      Пришельцы из прошлого смотреть онлайн бесплатно в хорошем качестве


      Вы не можете начинать темы
      Вы не можете отвечать на сообщения
      Вы не можете редактировать свои сообщения
      Вы не можете удалять свои сообщения
      Вы не можете голосовать в опросах
      Вы не можете прикреплять файлы к сообщениям
      Вы можете скачивать файлы