Доктор Стрэндж

Лицензия

Добыча

MVO

Дом дракона

1 сезон

Тор

Лицензия

Мэверик

Лицензия

Там, где раки поют

MVO

Властелин колец

1 сезон

Ultimate

pack

Рекомендуем

30

Repack

ВАЖНО

ВАЖНО

Ghostwire

RePack

jed

RePack

nioh2

RePack

RDR2

RePack

NEED FOR SPEED™ PAYBACK

RePack

скачать торрент

Кинопоиск HD

Острые козырьки 6 сезон

6 сезон

FAR CRY 6

RePack

скачать торрент

Лицензия

скачать торрент

MVO

1

1 сезон

скачать торрент

1 сезон

скачать торрент

Лицензия

  

Люпен III: Первый / Lupin III: The First (Такаси Ямадзаки) [2019, Аниме, мультфильм, боевик, приключения, комедия, криминал, BDRip 720p] MVO [iTunes]

Люпен III: Первый через торрент pb.wtf

Размер: 4.54 GB | Добавлен: 1 год 9 мес. назад | Торрент скачан:32 раза
Смотреть онлайн | Скачать   

14-12-2020 11:56 Люпен III: Первый Скачать торрент  

Люпен III: Первый | Lupin III: The First
Год выпуска: 2019
Страна: Япония
Студия: Chukyo TV Broadcasting Company (CTV), Miyagi Television Broadcasting, Shirogumi, Yomiuri Telecasting Corporation (YTV)
Жанр: Аниме, мультфильм, боевик, приключения, комедия, криминал
Продолжительность: 01:32:40
Перевод: Профессиональный (многоголосый) | Студия "Позитив" по заказу Маурис Филм | iTunes
Субтитры: отсутствуют

Режиссер: Такаси Ямадзаки

rating

В ролях: Канъити Курита, Тацуя Фудзивара, Судзу Хиросэ, Киёси Кобаяси, Даисукэ Намикава, Миюки Савасиро, Коити Ямадэра, Котаро Ёсида

Описание: Известный вор Люпен III объединяется с женщиной по имени Летиция, чтобы украсть дневник Брессона - сокровище, заполучить которое оказалось не по зубам даже его знаменитому деду.

Качество: BDRip 720p
Формат: MKV

Видео: MPEG-4 AVC, 6000 Кb/s, 1280x536, 23, 976 fps
Аудио #1 Russian: 48 kHz, AC3 Dolby Digital, 3/2 (L, C, R, l, r) + LFE ch, ~384 Kbps | iTunes
Аудио #2 Japanese: 48 kHz, AC3 Dolby Digital, 3/2 (L, C, R, l, r) + LFE ch, ~640 Kbps | Original
скриншот  скриншот  скриншот  скриншот  

Complete name : Lyupen.III.Pervyiy.2019.BluRay.720p.ELEKTRI4KA.UNIONGANG.mkv
Format : Matroska
Format version : Version 4 / Version 2
File size : 4.54 GiB
Duration : 1 h 32 min
Overall bit rate : 7 019 kb/s
Movie name : .ELEKTRI4KA.UNIONGANG.
Encoded date : UTC 2020-12-13 16:06:54
Writing application : mkvmerge v8.3.0 ('Over the Horizon') 64bit
Writing library : libebml v1.3.1 + libmatroska v1.4.2

Video
ID : 1
Format : AVC
Format/Info : Advanced Video Codec
Format profile : [email protected]
Format settings, CABAC : Yes
Format settings, Reference frames : 8 frames
Codec ID : V_MPEG4/ISO/AVC
Duration : 1 h 32 min
Bit rate : 6 000 kb/s
Width : 1 280 pixels
Height : 536 pixels
Display aspect ratio : 2.40:1
Frame rate mode : Constant
Frame rate : 23.976 (24000/1001) FPS
Color space : YUV
Chroma subsampling : 4:2:0
Bit depth : 8 bits
Scan type : Progressive
Bits/(Pixel*Frame) : 0.365
Stream size : 3.88 GiB (85%)
Title : .ELEKTRI4KA.UNIONGANG.
Writing library : x264 core 157 r2958 57baac4
Encoding settings : cabac=1 / ref=8 / deblock=1:-3:-3 / analyse=0x3:0x133 / me=umh / subme=9 / psy=1 / psy_rd=1.00:0.15 / mixed_ref=1 / me_range=24 / chroma_me=1 / trellis=2 / 8x8dct=1 / cqm=0 / deadzone=21, 11 / fast_pskip=0 / chroma_qp_offset=-3 / threads=17 / lookahead_threads=2 / sliced_threads=0 / nr=0 / decimate=0 / interlaced=0 / bluray_compat=0 / constrained_intra=0 / bframes=8 / b_pyramid=2 / b_adapt=2 / b_bias=0 / direct=3 / weightb=0 / open_gop=0 / weightp=2 / keyint=240 / keyint_min=24 / scenecut=40 / intra_refresh=0 / rc=2pass / mbtree=0 / bitrate=6000 / ratetol=1.0 / qcomp=0.60 / qpmin=0 / qpmax=69 / qpstep=4 / cplxblur=20.0 / qblur=0.5 / ip_ratio=1.40 / pb_ratio=1.30 / aq=1:1.00
Default : Yes
Forced : No

Audio #1
ID : 2
Format : AC-3
Format/Info : Audio Coding 3
Mode extension : CM (complete main)
Format settings, Endianness : Big
Codec ID : A_AC3
Duration : 1 h 32 min
Bit rate mode : Constant
Bit rate : 384 kb/s
Channel(s) : 6 channels
Channel positions : Front: L C R, Side: L R, LFE
Sampling rate : 48.0 kHz
Frame rate : 31.250 FPS (1536 spf)
Bit depth : 16 bits
Compression mode : Lossy
Stream size : 254 MiB (5%)
Title : MVO (iTunes)
Language : Russian
Default : Yes
Forced : Yes

Audio #2
ID : 3
Format : AC-3
Format/Info : Audio Coding 3
Mode extension : CM (complete main)
Format settings, Endianness : Big
Codec ID : A_AC3
Duration : 1 h 32 min
Bit rate mode : Constant
Bit rate : 640 kb/s
Channel(s) : 6 channels
Channel positions : Front: L C R, Side: L R, LFE
Sampling rate : 48.0 kHz
Frame rate : 31.250 FPS (1536 spf)
Bit depth : 16 bits
Compression mode : Lossy
Stream size : 424 MiB (9%)
Language : Japanese
Default : No
Forced : No

Menu
00:00:00.000 : :Chapter 1
00:07:56.517 : :Chapter 2
00:15:04.361 : :Chapter 3
00:23:11.973 : :Chapter 4
00:30:26.491 : :Chapter 5
00:38:26.762 : :Chapter 6
00:46:05.471 : :Chapter 7
00:54:10.747 : :Chapter 8
01:01:41.364 : :Chapter 9
01:08:25.434 : :Chapter 10
01:16:20.075 : :Chapter 11
01:24:59.469 : :Chapter 12
01:32:31.712 : :Chapter 13




Скачать Люпен III: Первый через торрент https://i2-imageban-ru.translate.goog/out/2020/12/13/f1dbabefab146034396c8e76030d1875.png Скачать, смотреть онлайн Люпен III: Первый бесплантно в хорошем качестве Описание: Известный вор Люпен III объединяется с женщиной по имени Летиция, чтобы украсть дневник Брессона - сокровище, заполучить которое ... 10 10 3
Торрент: Зарегистрирован [2020-12-14 11:56] · скачан: 32 раз
Статус: √ проверено
Размер: 4.54 GB
Как cкачать? Как скачать Люпен III: Первый через торрент | UTorrent

% Раздел Тема Автор DL S | L
Аниме [HD 720p, 1080p] [ 7.65 GB ] Люпен III: Первый / Lupin III: The First | iTunes | 1080p bober100 Скачать
1 | 0
Аниме [DVDrip, WEB-DLRip, HDrip] [ 1.42 GB ] Люпен III: Первый / Lupin III: The First | iTunes | BDRip bober100 Скачать
1 | 0

28-11-2019 20:33  


Отключить вcю реклaмy на сайте, в т.ч. и в плеере онлайн просмотра!

    Дорогой пользователь! Огромная просьба, поблагодарите релизера, оцените раздачу и оставьте свои комментарий, если Вы скачали Люпен III: Первый через торрент бесплатно!!
    Комментировать посты могут только пользователи прошедшие не сложную регистрацию
    Показать сообщения:    


    Люпен III: Первый через торрент
    Скачать бесплатно Люпен III: Первый
    Люпен III: Первый скачать торрент
    Люпен III: Первый смотреть онлайн
    Cкачать фильм Люпен III: Первый бесплатно
    Люпен III: Первый скачать торрент в хорошем качестве
    Люпен III: Первый смотреть онлайн бесплатно в хорошем качестве
    Вы не можете начинать темы
    Вы не можете отвечать на сообщения
    Вы не можете редактировать свои сообщения
    Вы не можете удалять свои сообщения
    Вы не можете голосовать в опросах
    Вы не можете прикреплять файлы к сообщениям
    Вы можете скачивать файлы