2 сезон

iTunes

MVO

1

2 сезон

iTunes

iTunes

1 сезон

RePack

30

Новинка

ВАЖНО

ИГРА 18+

pack

RePack

MK11
pack

Легкие деньги

RePack

jed

RePack

fifa19

RePack

RDR2

RePack

NEED FOR SPEED™ PAYBACK

4 сезон

9 сезон

Бесстыжие 9 сезон

Все сериалы

все сериалы на PB.wtf

RePack

FAR CRY 5

Anonymous, доброй ночи, мы не успеваем собрать деньги на оплату серверов за декабрь и январь, помогите нам пожалуйста в это трудное время. В качестве благодарности мы отключим Вам всю рекламу на сайте (укажите свой ник в строку Ваше имя)!

×
  
Magnet ссылка

Пенниуорт / Pennyworth / Сезон: 2 / Серии: 1-4 из 10 (Дэнни Кэннон, Джон Ист, Роб Бэйли) [2020, Боевик, драма, криминал, WEB-DL 1080p] DUB [Lucky Production] +3xMVO [Lostfilm, HDRezka Studio, TVShows] pb.wtf

Пенниуорт через торрент pb.wtf

Размер: 21.89 GB | Добавлен: 6 д. назад | Торрент скачан:1 раз
Скачать  

15-12-2020 09:33 Пенниуорт Скачать торрент  

Пенниуорт | Pennyworth
«At your service»
Год выпуска: 2020
Страна: США
Студия: Warner Horizon Television
Жанр: Боевик, драма, криминал
Продолжительность: ~ 0:55:00
Перевод: Дублированный | Lucky Production по заказу Кинопоиск
Перевод: Профессиональный (многоголосый закадровый) | Lostfilm
Перевод: Профессиональный (многоголосый закадровый) | HDRezka Studio
Перевод: Профессиональный (многоголосый закадровый) | TVShows
Субтитры: Русские (Forced), английские (SDH)

Режиссер: Дэнни Кэннон, Джон Ист, Роб Бэйли

rating


В ролях
: Джек Бэннон, Палома Фэйт, Бен Элдридж, Джейсон Флеминг, Хэйнсли Ллойд Беннетт, Дороти Эткинсон, Эмма Коррин, Райан Флетчер, Иан Палстон-Дэвис, Ники Виккери и другие.

Описание: После демобилизации из армии Альфред Пенниуорт (Джек Бэннон) пытается устроиться среди гражданских, и, что часто случается с военными, начинает как вышибала в ночном клубе. Эта приземленная работа вызывает большое неудовольствие его отца, профессионального дворецкого. Продолжая мечтать о чем-то большем, Альфред встречает Томаса Уэйна (Бен Элдридж) — прямолинейного финансового аналитика, расследующего экономические преступления и заговоры. Пенниуорт освобождает сестру нового знакомого от подозрительных личностей, чем демонстрирует, что бывших солдат не бывает, как бы ему ни хотелось забыть о своем военном прошлом. Тем более что еще не время терять хватку: безопасности королевства угрожают тайные организации, которые собираются изменить будущее британского государства и всего мира.

Качество: WEB-DL 1080p
Формат: MKV

Видео: AVC, 1920x960 (2.000), ~ 12.4 Mbps, 23.976 fps
Аудио 1: AC3, 48 kHz, 2 ch, 192 kbps - Rus (Lucky Production)
Аудио 2: AC3, 48 kHz, 6 ch, 640 kbps - Rus (Lostfilm)
Аудио 3: AC3, 48 kHz, 6 ch, 384 kbps - Rus (HDRezka Studio)
Аудио 4: AC3, 48 kHz, 6 ch, 384 kbps - Rus (TVShows)
Аудио 5: AC3, 48 kHz, 6 ch, 640 kbps - Eng
скриншот  скриншот  скриншот  скриншот  скриншот  

Общее
Уникальный идентификатор : 185995417235124272669333441150245154188 (0x8BED6A13501E0E90895A04B1D0302D8C)
Полное имя : D:\Пенниуорт. 2 сезон. 2020. EniaHD (WEB-DLRip 1080p)\Pennyworth.s02e01. Тяжёлый венец.mkv
Формат : Matroska
Версия формата : Version 2
Размер файла : 5,82 Гбайт
Продолжительность : 55 м. 49 с.
Общий поток : 14,9 Мбит/сек
Название фильма : The Heavy Crown
Дата кодирования : UTC 2020-12-16 20:00:11
Программа кодирования : mkvmerge v6.9.1 ('Blue Panther') 32bit built on Apr 18 2014 18:15:44
Библиотека кодирования : libebml v1.3.0 + libmatroska v1.4.1

Видео
Идентификатор : 1
Формат : AVC
Формат/Информация : Advanced Video Codec
Профиль формата : High@L4.1
Параметр CABAC формата : Да
Параметр RefFrames формата : 4 кадра
Идентификатор кодека : V_MPEG4/ISO/AVC
Продолжительность : 55 м. 49 с.
Битрейт : 12,4 Мбит/сек
Ширина : 1920 пикселей
Высота : 960 пикселей
Соотношение сторон : 2,000
Режим частоты кадров : Постоянный
Частота кадров : 23,976 (24000/1001) кадра/сек
Цветовое пространство : YUV
Субдискретизация насыщенности : 4:2:0
Битовая глубина : 8 бит
Тип развёртки : Прогрессивная
Бит/(Пиксели*Кадры) : 0.280
Размер потока : 4,83 Гбайт (83%)
Библиотека кодирования : x264 core 157 r2935 545de2f
Настройки программы : cabac=1 / ref=4 / deblock=1:-3:-3 / analyse=0x3:0x133 / me=umh / subme=10 / psy=1 / psy_rd=1.00:0.00 / mixed_ref=1 / me_range=48 / chroma_me=1 / trellis=2 / 8x8dct=1 / cqm=0 / deadzone=21,11 / fast_pskip=0 / chroma_qp_offset=-2 / threads=18 / lookahead_threads=3 / sliced_threads=0 / nr=0 / decimate=0 / interlaced=0 / bluray_compat=0 / constrained_intra=0 / bframes=8 / b_pyramid=2 / b_adapt=2 / b_bias=0 / direct=3 / weightb=1 / open_gop=0 / weightp=2 / keyint=250 / keyint_min=23 / scenecut=40 / intra_refresh=0 / rc=crf / mbtree=0 / crf=17.0 / qcomp=0.60 / qpmin=0 / qpmax=69 / qpstep=4 / ip_ratio=1.30 / pb_ratio=1.20 / aq=3:0.80
Язык : English
Default : Да
Forced : Нет
Цветовой диапазон : Limited
Основные цвета : BT.709
Характеристики трансфера : BT.709
Коэффициенты матрицы : BT.709

Аудио #1
Идентификатор : 2
Формат : AC-3
Формат/Информация : Audio Coding 3
Расширение режима : CM (complete main)
Параметр Endianness формата : Big
Идентификатор кодека : A_AC3
Продолжительность : 55 м. 49 с.
Вид битрейта : Постоянный
Битрейт : 192 Кбит/сек
Каналы : 2 канала
Расположение каналов : Front: L R
Частота : 48,0 КГц
Частота кадров : 31,250 кадров/сек (1536 spf)
Метод сжатия : С потерями
Размер потока : 76,7 Мбайт (1%)
Заголовок : Dub
Язык : Russian
Default : Да
Forced : Нет

Аудио #2
Идентификатор : 3
Формат : AC-3
Формат/Информация : Audio Coding 3
Расширение режима : CM (complete main)
Параметр Endianness формата : Big
Идентификатор кодека : A_AC3
Продолжительность : 55 м. 49 с.
Вид битрейта : Постоянный
Битрейт : 640 Кбит/сек
Каналы : 6 каналов
Расположение каналов : Front: L C R, Side: L R, LFE
Частота : 48,0 КГц
Частота кадров : 31,250 кадров/сек (1536 spf)
Метод сжатия : С потерями
Размер потока : 256 Мбайт (4%)
Заголовок : Lostfilm
Язык : Russian
Default : Нет
Forced : Нет

Аудио #3
Идентификатор : 4
Формат : AC-3
Формат/Информация : Audio Coding 3
Расширение режима : CM (complete main)
Параметр Endianness формата : Big
Идентификатор кодека : A_AC3
Продолжительность : 55 м. 49 с.
Вид битрейта : Постоянный
Битрейт : 384 Кбит/сек
Каналы : 6 каналов
Расположение каналов : Front: L C R, Side: L R, LFE
Частота : 48,0 КГц
Частота кадров : 31,250 кадров/сек (1536 spf)
Метод сжатия : С потерями
Размер потока : 153 Мбайт (3%)
Заголовок : HDRezka Studio
Язык : Russian
Default : Нет
Forced : Нет

Аудио #4
Идентификатор : 5
Формат : AC-3
Формат/Информация : Audio Coding 3
Расширение режима : CM (complete main)
Параметр Endianness формата : Big
Идентификатор кодека : A_AC3
Продолжительность : 55 м. 49 с.
Вид битрейта : Постоянный
Битрейт : 384 Кбит/сек
Каналы : 6 каналов
Расположение каналов : Front: L C R, Side: L R, LFE
Частота : 48,0 КГц
Частота кадров : 31,250 кадров/сек (1536 spf)
Метод сжатия : С потерями
Размер потока : 153 Мбайт (3%)
Заголовок : TVShows
Язык : Russian
Default : Нет
Forced : Нет

Аудио #5
Идентификатор : 6
Формат : AC-3
Формат/Информация : Audio Coding 3
Расширение режима : CM (complete main)
Параметр Endianness формата : Big
Идентификатор кодека : A_AC3
Продолжительность : 55 м. 49 с.
Вид битрейта : Постоянный
Битрейт : 640 Кбит/сек
Каналы : 6 каналов
Расположение каналов : Front: L C R, Side: L R, LFE
Частота : 48,0 КГц
Частота кадров : 31,250 кадров/сек (1536 spf)
Метод сжатия : С потерями
Размер потока : 256 Мбайт (4%)
Язык : English
Default : Нет
Forced : Нет

Текст #1
Идентификатор : 7
Формат : UTF-8
Идентификатор кодека : S_TEXT/UTF8
Идентификатор кодека/Информация : UTF-8 Plain Text
Заголовок : Forced
Язык : Russian
Default : Да
Forced : Да

Текст #2
Идентификатор : 8
Формат : UTF-8
Идентификатор кодека : S_TEXT/UTF8
Идентификатор кодека/Информация : UTF-8 Plain Text
Заголовок : SDH
Язык : English
Default : Нет
Forced : Нет

Когда раздача ведётся путём добавления новых серий, при каждом добавлении создётся новый торрент. Чтобы начать докачку новой серии, пользователям необходимо сделать следующее:
(1) остановить скачивание,
(2) удалить старый торрент у себя из клиента (старые серии удалять не надо),
(3) скачать новый торрент и запустить его у себя в клиенте вместо старого, при этом указать клиенту путь в старую папку, куда и должно происходить скачивание новых серий.
Ваш клиент при этом должен произвести хеширование (проверку) старой папки (если не производит сам - помогите ему сделать это), и будет докачивать только те серии, которых у вас ещё нет. Старые серии при этом не удаляются, а продолжают раздаваться!
Eсли вы уже удалили старые серии, то предотвратить повторную закачку старых серий можно, отжав галочку в соответсвующих местах при запуске нового торрента. По возможности, желательно не удалять старые серии как можно дольше, чтобы релизёр не столько продолжал раздавать старые серии, а смог сконцентрироваться на новых.

pb.wtf



Скачать Пенниуорт через торрент https://i5.imageban.ru/out/2020/12/15/b78212c0b98dc3ea0c6aa7f5f6f0e273.png Скачать фильм Пенниуорт через торрент бесплантно в хорошем качестве Описание: После демобилизации из армии Альфред Пенниуорт (Джек Бэннон) пытается устроиться среди гражданских, и, что часто случается с ... 10 10 2
Торрент: Зарегистрирован [2021-01-12 15:05] · скачан: 1 раз
Статус: √ проверено
Размер: 21.89 GB
Как cкачать? Как скачать Пенниуорт через торрент | UTorrent

% Раздел Тема Автор DL S | L
Зарубежные сериалы [ 2.78 GB ] Пенниуорт / Pennyworth / Сезон: 2 / Серии: 1-4 из 10 [2020 WEB-DLRip] MVO [TVShows] bober100 Скачать
1 | 0
Зарубежные сериалы [ 7.06 GB ] Пенниуорт / Pennyworth / Сезон: 2 / Серии: 1-4 из 10 [2020 WEB-DL 720p] [MVO] killermax2013 Скачать
1 | 0
Зарубежные сериалы [ 2.96 GB ] Пенниуорт / Pennyworth / Сезон: 2 / Серии: 1-4 из 10 [2020 WEB-DL 720p] + 2x[MVO] killermax2013 Скачать
2 | 0
Зарубежные сериалы [ 2.84 GB ] Пенниуорт / Pennyworth / Сезон: 2 / Серии: 1-4 из 10 [2020 WEB-DLRip] killermax2013 Скачать
1 | 0
Зарубежные сериалы [ 15.45 GB ] Пенниуорт / Pennyworth / Сезон: 2 / Серии: 1-4 из 10 [2020 WEB-DL 1080p] MVO [HDRezka Studio] bober100 Скачать
2 | 1
T Зарубежные сериалы [ 2.4 GB ] Пенниуорт / Pennyworth / Сезон: 2 / Серии: 1-4 из 10 [2020 WEBRip] [MVO] killermax2013 Скачать
1 | 0

28-11-2019 20:33  

Отключить всю рекламу на сайте

    Дорогой пользователь! Огромная просьба, поблагодарите релизера, оцените раздачу и оставьте свои комментарий, если Вы скачали Пенниуорт через торрент бесплатно! Внесите свою лепту в развитие PiratBit!
    Комментировать посты могут только пользователи прошедшие не сложную регистрацию
    Показать сообщения:    

    Пенниуорт через торрент
    Скачать бесплатно Пенниуорт
    Пенниуорт скачать торрент
    Пенниуорт смотреть онлайн
    Cкачать фильм Пенниуорт бесплатно
    Пенниуорт скачать торрент в хорошем качестве
    Пенниуорт смотреть онлайн бесплатно в хорошем качестве


    Вы не можете начинать темы
    Вы не можете отвечать на сообщения
    Вы не можете редактировать свои сообщения
    Вы не можете удалять свои сообщения
    Вы не можете голосовать в опросах
    Вы не можете прикреплять файлы к сообщениям
    Вы можете скачивать файлы