2 сезон

iTunes

MVO

1

2 сезон

iTunes

iTunes

1 сезон

RePack

30

Ultimate

ВАЖНО

ИГРА 18+

pack

RePack

MK11
pack

Легкие деньги

RePack

jed

RePack

fifa19

RePack

RDR2

RePack

NEED FOR SPEED™ PAYBACK

4 сезон

9 сезон

Бесстыжие 9 сезон

Все сериалы

все сериалы на PB.wtf

RePack

FAR CRY 5

Anonymous, доброй ночи, мы не успеваем собрать деньги на оплату серверов за декабрь и январь, помогите нам пожалуйста в это трудное время. В качестве благодарности мы отключим Вам всю рекламу на сайте (укажите свой ник в строку Ваше имя)!

×
  
Magnet ссылка

Пенниуорт / Pennyworth / Сезон: 2 / Серии: 1-4 из 10 (Роб Бэйли, Билл Иглз, Дэнни Кэннон) [2020, Боевик, драма, криминал, WEB-DL (HEVC)720p] [DUB] (Lucky Production) + 2x[MVO] (TVShows, HDRezka Studio) pb.wtf

Пенниуорт через торрент pb.wtf

Раздают: 2 [ 0 KB/s ]
Размер: 2.96 GB | Добавлен: 6 д. назад | Торрент скачан:5 раз
Скачать  

15-12-2020 11:43 Пенниуорт Скачать торрент  

Пенниуорт / Pennyworth

Год выпуска: 2020
Страна: США
Жанр: Боевик, драма, криминал
Продолжительность: ~ 00:56:00
Перевод #1: Дублированный *Lucky Production по заказу Кинопоиск*
Перевод #2: Профессиональный (многоголосый) *TVShows*
Перевод #3: Профессиональный (многоголосый) *HDRezka Studio*
Субтитры: английские

Режиссер: Роб Бэйли, Билл Иглз, Дэнни Кэннон


В ролях
: Джек Бэннон, Палома Фэйт, Бен Элдридж, Джейсон Флеминг, Хэйнсли Ллойд Беннетт, Дороти Эткинсон, Эмма Коррин, Райан Флетчер, Иан Палстон-Дэвис, Ники Виккери и другие.

Описание: Альфред Пенниуорт — отставной офицер британского спецназа, который создаёт в Лондоне собственное охранное предприятие. Одним из его первых клиентов становится миллионер Томас Уэйн, отец будущего Бэтмена.

rating

Качество: WEB-DL (HEVC)720p
Формат: MKV
Видео кодек: x.265
Аудио кодек: AC3
Видео: HEVC/H.265, 1280x720, 23,976 fps, ~1 700 Kbps, 8 bits
Аудио 1: 48 kHz, AC3, 2 ch, ~192 kbps - DUB
Аудио 2: 48 kHz, AC3, 2 ch, ~192 kbps - TVShows
Аудио 3: 48 kHz, AC3, 6 ch, ~448 kbps - HDRezka Studio
Аудио 4: 48 kHz, AC3, 6 ch, ~448 kbps - Eng
скриншот   скриншот   скриншот   скриншот  

General
Unique ID : 188676717546935345162213224593991981830 (0x8DF1D0632BD8905E928FDD07802CDB06)
Complete name : G:\Pennyworth.S02.WEB-DL(HEVC)720p\Pennyworth.S02E01.WEB-DL(HEVC)720p.[DUB]+2x[MVO].xz.mkv
Format : Matroska
Format version : Version 4
File size : 786 MiB
Duration : 55 min 39 s
Overall bit rate : 1 974 kb/s
Movie name : Pennyworth.S02E01.WEB-DL(HEVC)720p.[DUB]+2x[MVO].xz
Encoded date : UTC 2020-12-24 10:27:17
Writing application : mkvmerge v6.1.0 ('Old Devil') built on Mar 2 2013 14:32:37
Writing library : libebml v1.3.0 + libmatroska v1.4.0 / Lavf58.38.100
Comment : ZMNT-Sun-13-Dec-2020,11:01:03,720p,22,1,1,1,1,3449242,3449242,4172270,0,0,-1,1.778,1,1280,720,1.778,1.778

Video
ID : 1
Format : HEVC
Format/Info : High Efficiency Video Coding
Format profile : Main@L3.1@Main
Codec ID : V_MPEGH/ISO/HEVC
Duration : 55 min 39 s
Bit rate : 755 kb/s
Width : 1 280 pixels
Height : 720 pixels
Display aspect ratio : 16:9
Frame rate mode : Constant
Frame rate : 23.976 (24000/1001) FPS
Color space : YUV
Chroma subsampling : 4:2:0
Bit depth : 8 bits
Bits/(Pixel*Frame) : 0.030
Stream size : 261 MiB (33%)
Title : Pennyworth.S02E01.WEB-DLRip (HEVC)720p.[DUB]+2x[MVO].xz
Writing library : x265 3.2+38-fdbd4e4a2aff:[Linux][GCC 4.4.7][64 bit] 8bit
Encoding settings : cpuid=1111039 / frame-threads=3 / wpp / no-pmode / no-pme / no-psnr / no-ssim / log-level=2 / input-csp=1 / input-res=1280x720 / interlace=0 / total-frames=0 / level-idc=0 / high-tier=1 / uhd-bd=0 / ref=3 / no-allow-non-conformance / no-repeat-headers / annexb / no-aud / no-hrd / info / hash=0 / no-temporal-layers / open-gop / min-keyint=23 / keyint=250 / gop-lookahead=0 / bframes=4 / b-adapt=2 / b-pyramid / bframe-bias=0 / rc-lookahead=20 / lookahead-slices=4 / scenecut=40 / hist-scenecut=0 / radl=0 / no-splice / no-intra-refresh / ctu=64 / min-cu-size=8 / no-rect / no-amp / max-tu-size=32 / tu-inter-depth=1 / tu-intra-depth=1 / limit-tu=0 / rdoq-level=0 / dynamic-rd=0.00 / no-ssim-rd / signhide / no-tskip / nr-intra=0 / nr-inter=0 / no-constrained-intra / strong-intra-smoothing / max-merge=3 / limit-refs=1 / no-limit-modes / me=1 / subme=2 / merange=57 / temporal-mvp / no-frame-dup / no-hme / weightp / no-weightb / no-analyze-src-pics / deblock=0:0 / sao / no-sao-non-deblock / rd=3 / selective-sao=4 / early-skip / rskip / no-fast-intra / no-tskip-fast / no-cu-lossless / b-intra / no-splitrd-skip / rdpenalty=0 / psy-rd=2.00 / psy-rdoq=0.00 / no-rd-refine / no-lossless / cbqpoffs=0 / crqpoffs=0 / rc=crf / crf=22.0 / qcomp=0.60 / qpstep=4 / stats-write=0 / stats-read=0 / ipratio=1.40 / pbratio=1.30 / aq-mode=2 / aq-strength=1.00 / cutree / zone-count=0 / no-strict-cbr / qg-size=32 / no-rc-grain / qpmax=69 / qpmin=0 / no-const-vbv / sar=1 / overscan=0 / videoformat=5 / range=0 / colorprim=2 / transfer=2 / colormatrix=2 / chromaloc=0 / display-window=0 / cll=0,0 / min-luma=0 / max-luma=255 / log2-max-poc-lsb=8 / vui-timing-info / vui-hrd-info / slices=1 / no-opt-qp-pps / no-opt-ref-list-length-pps / no-multi-pass-opt-rps / scenecut-bias=0.05 / hist-threshold=0.01 / no-opt-cu-delta-qp / no-aq-motion / no-hdr10 / no-hdr10-opt / no-dhdr10-opt / no-idr-recovery-sei / analysis-reuse-level=0 / analysis-save-reuse-level=0 / analysis-load-reuse-level=0 / scale-factor=0 / refine-intra=0 / refine-inter=0 / refine-mv=1 / refine-ctu-distortion=0 / no-limit-sao / ctu-info=0 / no-lowpass-dct / refine-analysis-type=0 / copy-pic=1 / max-ausize-factor=1.0 / no-dynamic-refine / no-single-sei / no-hevc-aq / no-svt / no-field / qp-adaptation-range=1.00 / no-scenecut-aware-qpconformance-window-offsets / right=0 / bottom=0
Default : Yes
Forced : No
Color range : Limited
Duration_Source : General_Duration

Audio #1
ID : 2
Format : AC-3
Format/Info : Audio Coding 3
Commercial name : Dolby Digital
Codec ID : A_AC3
Duration : 55 min 39 s
Bit rate mode : Constant
Bit rate : 192 kb/s
Channel(s) : 2 channels
Channel layout : L R
Sampling rate : 48.0 kHz
Frame rate : 31.250 FPS (1536 SPF)
Compression mode : Lossy
Stream size : 76.4 MiB (10%)
Title : DUB 2Ch
Language : Russian
Service kind : Complete Main
Default : Yes
Forced : No
Duration_Source : General_Duration

Audio #2
ID : 3
Format : AC-3
Format/Info : Audio Coding 3
Commercial name : Dolby Digital
Codec ID : A_AC3
Duration : 55 min 39 s
Bit rate mode : Constant
Bit rate : 192 kb/s
Channel(s) : 2 channels
Channel layout : L R
Sampling rate : 48.0 kHz
Frame rate : 31.250 FPS (1536 SPF)
Compression mode : Lossy
Stream size : 76.4 MiB (10%)
Title : TVShows 2Ch
Language : Russian
Service kind : Complete Main
Default : No
Forced : No
Duration_Source : General_Duration

Audio #3
ID : 4
Format : AC-3
Format/Info : Audio Coding 3
Commercial name : Dolby Digital
Codec ID : A_AC3
Duration : 55 min 39 s
Bit rate mode : Constant
Bit rate : 448 kb/s
Channel(s) : 6 channels
Channel layout : L R C LFE Ls Rs
Sampling rate : 48.0 kHz
Frame rate : 31.250 FPS (1536 SPF)
Compression mode : Lossy
Stream size : 178 MiB (23%)
Title : HDRezka Studio 5,1Ch
Language : Russian
Service kind : Complete Main
Default : No
Forced : No
Duration_Source : General_Duration

Audio #4
ID : 5
Format : AC-3
Format/Info : Audio Coding 3
Commercial name : Dolby Digital
Codec ID : A_AC3
Duration : 55 min 39 s
Bit rate mode : Constant
Bit rate : 448 kb/s
Channel(s) : 6 channels
Channel layout : L R C LFE Ls Rs
Sampling rate : 48.0 kHz
Frame rate : 31.250 FPS (1536 SPF)
Compression mode : Lossy
Delay relative to video : 1 ms
Stream size : 178 MiB (23%)
Title : Eng
Writing library : Lavc58.69.100 ac3
Language : English
Service kind : Complete Main
Default : No
Forced : No

Text
ID : 6
Format : UTF-8
Codec ID : S_TEXT/UTF8
Codec ID/Info : UTF-8 Plain Text
Duration : 54 min 32 s
Language : English
Default : No
Forced : No

Когда раздача ведётся путём добавления новых серий, при каждом добавлении создётся новый торрент. Чтобы начать докачку новой серии, пользователям необходимо сделать следующее:
(1) остановить скачивание,
(2) удалить старый торрент у себя из клиента (старые серии удалять не надо),
(3) скачать новый торрент и запустить его у себя в клиенте вместо старого, при этом указать клиенту путь в старую папку, куда и должно происходить скачивание новых серий.
Ваш клиент при этом должен произвести хеширование (проверку) старой папки (если не производит сам - помогите ему сделать это), и будет докачивать только те серии, которых у вас ещё нет. Старые серии при этом не удаляются, а продолжают раздаваться!
Eсли вы уже удалили старые серии, то предотвратить повторную закачку старых серий можно, отжав галочку в соответсвующих местах при запуске нового торрента. По возможности, желательно не удалять старые серии как можно дольше, чтобы релизер не столько продолжал раздавать старые серии, а смог сконцентрироваться на новых.
pb.wtf
Kkillermax2013 писал(а):

Обновлены 3-4-я серии! добавлена озвучка TVShows



Скачать Пенниуорт через торрент https://funkyimg.com/i/2VGy2.jpg Скачать фильм Пенниуорт через торрент бесплантно в хорошем качестве Описание: Альфред Пенниуорт — отставной офицер британского спецназа, который создаёт в Лондоне собственное охранное предприятие. Одним из ... 10 10 2
Торрент: Зарегистрирован [2021-01-12 12:29] · скачан: 5 раз
Статус: √ проверено
Размер: 2.96 GB
Как cкачать? Как скачать Пенниуорт через торрент | UTorrent

% Раздел Тема Автор DL S | L
Зарубежные сериалы [ 2.78 GB ] Пенниуорт / Pennyworth / Сезон: 2 / Серии: 1-4 из 10 [2020 WEB-DLRip] MVO [TVShows] bober100 Скачать
1 | 0
Зарубежные сериалы [ 7.06 GB ] Пенниуорт / Pennyworth / Сезон: 2 / Серии: 1-4 из 10 [2020 WEB-DL 720p] [MVO] killermax2013 Скачать
1 | 0
Зарубежные сериалы [ 21.89 GB ] Пенниуорт / Pennyworth / Сезон: 2 / Серии: 1-4 из 10 [2020 WEB-DL 1080p] DUB [Lucky Production] +3xMVO [Lostfilm HDRezka Studio TVShows] bober100 Скачать
1 | 0
Зарубежные сериалы [ 2.84 GB ] Пенниуорт / Pennyworth / Сезон: 2 / Серии: 1-4 из 10 [2020 WEB-DLRip] killermax2013 Скачать
1 | 0
Зарубежные сериалы [ 15.45 GB ] Пенниуорт / Pennyworth / Сезон: 2 / Серии: 1-4 из 10 [2020 WEB-DL 1080p] MVO [HDRezka Studio] bober100 Скачать
2 | 1
T Зарубежные сериалы [ 2.4 GB ] Пенниуорт / Pennyworth / Сезон: 2 / Серии: 1-4 из 10 [2020 WEBRip] [MVO] killermax2013 Скачать
1 | 0

28-11-2019 20:33  

Отключить всю рекламу на сайте

    Дорогой пользователь! Огромная просьба, поблагодарите релизера, оцените раздачу и оставьте свои комментарий, если Вы скачали Пенниуорт через торрент бесплатно! Внесите свою лепту в развитие PiratBit!
    Комментировать посты могут только пользователи прошедшие не сложную регистрацию
    Показать сообщения:    

    Пенниуорт через торрент
    Скачать бесплатно Пенниуорт
    Пенниуорт скачать торрент
    Пенниуорт смотреть онлайн
    Cкачать фильм Пенниуорт бесплатно
    Пенниуорт скачать торрент в хорошем качестве
    Пенниуорт смотреть онлайн бесплатно в хорошем качестве


    Вы не можете начинать темы
    Вы не можете отвечать на сообщения
    Вы не можете редактировать свои сообщения
    Вы не можете удалять свои сообщения
    Вы не можете голосовать в опросах
    Вы не можете прикреплять файлы к сообщениям
    Вы можете скачивать файлы