1 сезон

1 сезон

iTunes

1

КиноПоиск HD

Кинопоиск HD

iTunes

13

1 сезон

RePack

30

Ultimate

ВАЖНО

ИГРА 18+

pack

RePack

MK11
pack

Легкие деньги

RePack

jed

RePack

fifa19

RePack

RDR2

RePack

NEED FOR SPEED™ PAYBACK

4 сезон

9 сезон

Бесстыжие 9 сезон

Все сериалы

все сериалы на PB.wtf

RePack

FAR CRY 5
  
Magnet ссылка

Уроки ориентации / Home of Phobia ( Райан Шираки) [2004, мелодрама, комедия, WEB-DLRip-AVC] [MVO] [ТНТ] от Mediabit pb.wtf

Уроки ориентации через торрент pb.wtf

Раздают: 1 [ 0 KB/s ]
Размер: 1.45 GB | Добавлен: 4 мес. 2 д. назад | Торрент скачан:9 раз
Скачать  

16-12-2020 18:29 Уроки ориентации Скачать торрент  


Уроки ориентации / Home of Phobia
Информация о фильме:
Название: Уроки ориентации
Оригинальное название: Home of Phobia
Год выхода: 2004
Жанр: мелодрама, комедия
Режиссер: Райан Шираки

В ролях: Сэм Хантингтон, Марла Соколофф, Майк Эрвин, Хизер Матараццо, Кэйтлин Даблдэй, Брайс Джонсон, Джад Тайлор, Рэйчел Дрэч, Джон Гудман, Марк Эбни

Описание: Когда у тебя ничего не получается с девушкой, есть один способ наладить отношения - стать геем. Ведь кто, как не геи, хорошо понимают женщин?…



Страна: США
Студия: Element Films, L.I.F.T. Production, Persistent Entertainment
Продолжительность: 01:31:37
Перевод: Профессиональный (многоголосый, закадровый) - ТНТ



Информация о файле:
Кодек: AVC
Формат: MKV
Качество: WEB-DLRip-AVC
Видео: MPEG-4 AVC, 1024x576 (16:9), 23.976 fps, 1851 kbps, 0.131
Аудио RU: AC3, 2 ch, 48 kHz, 192 kbps
Аудио EN: AC3, 2 ch, 48 kHz, 224 kbps
Субтитры: английские

General
Unique ID : 23845896552425365301871142630901141935 (0x11F08D78A477582FDD06B81C3B43D1AF)
Complete name : D:\uTorrent\Рипы_от_wolf1245_MediaBit\Home of Phobia.2004.WEB-DLRip-AVC_wolf1245_MediaBit.mkv
Format : Matroska
Format version : Version 4
File size : 1.45 GiB
Duration : 1 h 31 min
Overall bit rate : 2 269 kb/s
Movie name : Home of Phobia.2004.WEB-DLRip-AVC_wolf1245_MediaBit
Encoded date : UTC 2020-12-16 18:15:40
Writing application : mkvmerge v51.0.0 ('I Wish') 64-bit
Writing library : libebml v1.4.0 + libmatroska v1.6.2

Video
ID : 1
Format : AVC
Format/Info : Advanced Video Codec
Format profile : High@L4.1
Format settings : CABAC / 14 Ref Frames
Format settings, CABAC : Yes
Format settings, Reference frames : 14 frames
Codec ID : V_MPEG4/ISO/AVC
Duration : 1 h 31 min
Bit rate : 1 851 kb/s
Width : 1 024 pixels
Height : 576 pixels
Display aspect ratio : 16:9
Frame rate mode : Constant
Frame rate : 23.976 (24000/1001) FPS
Color space : YUV
Chroma subsampling : 4:2:0
Bit depth : 8 bits
Scan type : Progressive
Bits/(Pixel*Frame) : 0.131
Stream size : 1.18 GiB (82%)
Title : wolf1245_MediaBit
Writing library : x264 core 157 r2958 57baac4
Encoding settings : cabac=1 / ref=14 / deblock=1:-3:-3 / analyse=0x3:0x133 / me=umh / subme=11 / psy=1 / psy_rd=1.03:0.03 / mixed_ref=1 / me_range=48 / chroma_me=1 / trellis=2 / 8x8dct=1 / cqm=0 / deadzone=21,11 / fast_pskip=0 / chroma_qp_offset=-3 / threads=10 / lookahead_threads=2 / sliced_threads=0 / nr=0 / decimate=0 / interlaced=0 / bluray_compat=0 / constrained_intra=0 / bframes=14 / b_pyramid=2 / b_adapt=2 / b_bias=0 / direct=3 / weightb=1 / open_gop=0 / weightp=2 / keyint=240 / keyint_min=24 / scenecut=40 / intra_refresh=0 / rc_lookahead=70 / rc=2pass / mbtree=0 / bitrate=1851 / ratetol=1.0 / qcomp=0.60 / qpmin=0 / qpmax=69 / qpstep=4 / cplxblur=20.0 / qblur=0.5 / vbv_maxrate=50000 / vbv_bufsize=62500 / nal_hrd=none / filler=0 / ip_ratio=1.40 / pb_ratio=1.30 / aq=1:0.80
Language : English
Default : Yes
Forced : No
Color range : Limited
Color primaries : BT.709
Transfer characteristics : BT.709
Matrix coefficients : BT.709

Audio #1
ID : 2
Format : AC-3
Format/Info : Audio Coding 3
Commercial name : Dolby Digital
Codec ID : A_AC3
Duration : 1 h 31 min
Bit rate mode : Constant
Bit rate : 192 kb/s
Channel(s) : 2 channels
Channel layout : L R
Sampling rate : 48.0 kHz
Frame rate : 31.250 FPS (1536 SPF)
Compression mode : Lossy
Stream size : 126 MiB (8%)
Title : MVO | ТНТ
Language : Russian
Service kind : Complete Main
Default : Yes
Forced : No

Audio #2
ID : 3
Format : AC-3
Format/Info : Audio Coding 3
Commercial name : Dolby Digital
Codec ID : A_AC3
Duration : 1 h 31 min
Bit rate mode : Constant
Bit rate : 224 kb/s
Channel(s) : 2 channels
Channel layout : L R
Sampling rate : 48.0 kHz
Frame rate : 31.250 FPS (1536 SPF)
Compression mode : Lossy
Stream size : 147 MiB (10%)
Title : ORIGINAL
Language : English
Service kind : Complete Main
Default : No
Forced : No

Text #1
ID : 4
Format : UTF-8
Codec ID : S_TEXT/UTF8
Codec ID/Info : UTF-8 Plain Text
Duration : 1 h 30 min
Bit rate : 72 b/s
Count of elements : 1905
Stream size : 48.5 KiB (0%)
Language : English
Default : No
Forced : No

Text #2
ID : 5
Format : UTF-8
Codec ID : S_TEXT/UTF8
Codec ID/Info : UTF-8 Plain Text
Duration : 1 h 31 min
Bit rate : 77 b/s
Count of elements : 2052
Stream size : 51.6 KiB (0%)
Title : SDH
Language : English
Default : No
Forced : No
Релиз от: & &
pb.wtf



Скачать Уроки ориентации через торрент https://b.radikal.ru/b28/2012/75/4f55a027bddc.jpg Скачать фильм Уроки ориентации через торрент бесплантно в хорошем качестве Описание: Когда у тебя ничего не получается с девушкой, есть один способ наладить отношения - стать геем. Ведь кто, как не геи, хорошо ... 10 10 2
Торрент: Зарегистрирован [2020-12-16 18:29] · скачан: 9 раз
Статус: √ проверено
Размер: 1.45 GB
Как cкачать? Как скачать Уроки ориентации через торрент | UTorrent

28-11-2019 20:33  

Отключить всю рекламу на сайте

    Дорогой пользователь! Огромная просьба, поблагодарите релизера, оцените раздачу и оставьте свои комментарий, если Вы скачали Уроки ориентации через торрент бесплатно! Внесите свою лепту в развитие PiratBit!
    Комментировать посты могут только пользователи прошедшие не сложную регистрацию
    Показать сообщения:    

    Уроки ориентации через торрент
    Скачать бесплатно Уроки ориентации
    Уроки ориентации скачать торрент
    Уроки ориентации смотреть онлайн
    Cкачать фильм Уроки ориентации бесплатно
    Уроки ориентации скачать торрент в хорошем качестве
    Уроки ориентации смотреть онлайн бесплатно в хорошем качестве


    Вы не можете начинать темы
    Вы не можете отвечать на сообщения
    Вы не можете редактировать свои сообщения
    Вы не можете удалять свои сообщения
    Вы не можете голосовать в опросах
    Вы не можете прикреплять файлы к сообщениям
    Вы можете скачивать файлы