Всегда рабочее зеркало без VPN и Proxy просто перед .vidak.icu напиши любое слово или цифру, Пример http://wyue.vidak.icu

MVO

Лицензия

1 сезон

1

1 сезон

iTunes

1 сезон

13

1 сезон

Deluxe

pack

Рекомендуем

Пиратка

30

ВАЖНО

RePack

MK11

RePack

jed

RePack

fifa19

RePack

RDR2

RePack

NEED FOR SPEED™ PAYBACK

Кинопоиск HD

6 сезон

 Острые козырьки 6 сезон

Все сериалы

все сериалы на PB.wtf

RePack

FAR CRY 5
  
Magnet ссылка

Кольская сверхглубокая (Арсений Сюхин) [2020, Триллер, ужасы, WEB-DL 720p] [iTunes] pb.wtf

Кольская сверхглубокая через торрент pb.wtf

Раздают: 2 [ 0 KB/s ]
Размер: 3.61 GB | Добавлен: 1 год 6 мес. назад | Торрент скачан:877 раз
Смотреть онлайн Кольская сверхглубокая | Скачать    Ребята, помогите собрать деньги на оплату серверов!!!

16-12-2020 20:17 Кольская сверхглубокая Скачать торрент  

Кольская сверхглубокая
Год выпуска: 2020
Страна: Россия
Выпущено: Трио Фильм
Жанр: Триллер, ужасы
Продолжительность: 01:55:00
Перевод: Не требуется | iTunes
Субтитры: отсутствуют

Режиссер: Арсений Сюхин

rating

В ролях: Милена Радулович, Сергей Иванюк, Николай Ковбас, Вадим Демчог, Кирилл Ковбас, Никита Дювбанов, Виктор Низовой, Артём Цуканов, Илья Ильиных, Владимир Колида

Описание: Кольская сверхглубокая скважина - самый масштабный секретный объект страны. В 1984 году на глубине более 12 километров были записаны необъяснимые звуки, похожие на крики множества голосов. После этих событий объект закрывают. Небольшая исследовательская группа отправляется под землю, чтобы узнать, какую тайну скрывает глубочайшая скважина в мире. То, что они обнаружили, оказывается величайшей угрозой в истории. Теперь будущее человечества находится в их руках.

Качество: WEB-DL 720p
Формат: MKV

Видео: MPEG-4 AVC, 4112 Kb/s, 1280x482, 24.000 fps
Аудио: 48 kHz, AC3 Dolby Digital, 3/2 (L, C, R, l, r) + LFE ch, ~384 kbps
скриншот  скриншот  скриншот  скриншот  

Complete name : D:Kolskaya.sverhglubokaya.2020.WEB-DL.720p.ELEKTRI4KA.UNIONGANG.mkv
Format : Matroska
Format version : Version 4 / Version 2
File size : 3.61 GiB
Duration : 1 h 55 min
Overall bit rate : 4 498 kb/s
Movie name : .ELEKTRI4KA.UNIONGANG.
Encoded date : UTC 2020-12-16 19:49:37
Writing application : mkvmerge v8.3.0 ('Over the Horizon') 64bit
Writing library : libebml v1.3.1 + libmatroska v1.4.2

Video
ID : 1
Format : AVC
Format/Info : Advanced Video Codec
Format profile : Main@L3.1
Format settings, CABAC : No
Format settings, Reference frames : 2 frames
Format settings, GOP : N=1
Codec ID : V_MPEG4/ISO/AVC
Duration : 1 h 55 min
Bit rate : 4 112 kb/s
Width : 1 280 pixels
Height : 482 pixels
Display aspect ratio : 2.656
Frame rate mode : Constant
Frame rate : 24.000 FPS
Color space : YUV
Chroma subsampling : 4:2:0
Bit depth : 8 bits
Scan type : Progressive
Bits/(Pixel*Frame) : 0.278
Stream size : 3.30 GiB (91%)
Title : .ELEKTRI4KA.UNIONGANG.
Language : English
Default : Yes
Forced : No
Color range : Limited
Color primaries : BT.709
Transfer characteristics : BT.709
Matrix coefficients : BT.709

Audio
ID : 2
Format : AC-3
Format/Info : Audio Coding 3
Mode extension : CM (complete main)
Format settings, Endianness : Big
Codec ID : A_AC3
Duration : 1 h 55 min
Bit rate mode : Constant
Bit rate : 384 kb/s
Channel(s) : 6 channels
Channel positions : Front: L C R, Side: L R, LFE
Sampling rate : 48.0 kHz
Frame rate : 31.250 FPS (1536 spf)
Bit depth : 16 bits
Compression mode : Lossy
Stream size : 316 MiB (9%)
Title : Original (iTunes)
Language : Russian
Default : Yes
Forced : No

Menu
00:00:00.000 : en:Глава 1
00:05:11.666 : en:Глава 2
00:09:19.582 : en:Глава 3
00:15:24.957 : en:Глава 4
00:24:27.832 : en:Глава 5
00:33:05.915 : en:Глава 6
00:43:51.581 : en:Глава 7
00:54:50.414 : en:Глава 8
01:01:07.747 : en:Глава 9
01:08:05.122 : en:Глава 10
01:17:34.163 : en:Глава 11
01:25:43.746 : en:Глава 12
01:36:32.246 : en:Глава 13
01:44:10.704 : en:Глава 14
01:50:27.620 : en:Глава 15

pb.wtf



Скачать Кольская сверхглубокая через торрент https://i5.imageban.ru/out/2020/12/16/82eabb45c9b8141740eaf79dad54555a.png Скачать, смотреть онлайн Кольская сверхглубокая бесплантно в хорошем качестве Описание: Кольская сверхглубокая скважина - самый масштабный секретный объект страны. В 1984 году на глубине более 12 километров были ... 9 10 25
Торрент: Зарегистрирован [2020-12-16 20:17] · скачан: 877 раз
Статус: √ проверено
Размер: 3.61 GB
Как cкачать? Как скачать Кольская сверхглубокая через торрент | UTorrent

% Раздел Тема Автор DL S | L
Наши новые фильмы 2020 - 2022 [ 1.65 GB ] Кольская сверхглубокая [2020 WEB-DLRip-AVC] bober100 Скачать
4 | 0
Наши фильмы (HD, WEB-DL 720p, 1080p) [ 4 GB ] Кольская сверхглубокая [2020 WEB-DL 1080p] bober100 Скачать
2 | 0
Наши новые фильмы 2020 - 2022 [ 750 MB ] Кольская сверхглубокая [2020 WEB-DLRip] bober100 Скачать
1 | 0
Наши новые фильмы 2020 - 2022 [ 1.46 GB ] Кольская сверхглубокая [2020 WEB-DLRip] bober100 Скачать
3 | 0
Наши новые фильмы 2020 - 2022 [ 746 MB ] Кольская сверхглубокая [2020 WEB-DLRip-AVC] [RUS] от Mediabit Lithuania Скачать
1 | 0

28-11-2019 20:33  

Отключить всю рекламу на сайте

17-12-2020 19:44 Кольская сверхглубокая Скачать торрент  

такого говна еще не смотрел. не тратьте времяpb.wtf



18-12-2020 17:49 Кольская сверхглубокая Скачать торрент  

Спасибо ,только сегодня трейлер увидел ,захотел скачать .pb.wtf



18-12-2020 20:24 Кольская сверхглубокая Скачать торрент  

Поддерживаю сообщение выше ,фильм говно еще то ..pb.wtf



18-12-2020 22:08 Кольская сверхглубокая Скачать торрент  

ekstaz писал(а):

Поддерживаю сообщение выше ,фильм говно еще то ..

А у нас есть фильмы ужасов не говно? :)pb.wtf



19-12-2020 08:44 Кольская сверхглубокая Скачать торрент  

Надо еще разок убедиться , вдруг все же говно! Ну посмотрел. Для разового просмотра .pb.wtf



19-12-2020 16:45 Кольская сверхглубокая Скачать торрент  

hkr писал(а):

ekstaz писал(а):

Поддерживаю сообщение выше ,фильм говно еще то ..

А у нас есть фильмы ужасов не говно? :)

Ну спутник еще более менее ,думал что то типа этого будет .
Идея та хорошая этого фильма ,режиссер настолько настолько бездаренpb.wtf



21-12-2020 22:07 Кольская сверхглубокая Скачать торрент  

Bodycat писал(а):

такого говна еще не смотрел. не тратьте время

Спасибо за сохраненное времяpb.wtf



22-12-2020 21:13 Кольская сверхглубокая Скачать торрент  

Слабенько, на разок....pb.wtf



04-12-2021 19:43 Кольская сверхглубокая Скачать торрент  

даже разок нельзя смотреть.это не режиссер говнишко-это весь состав унылое и тоскливое бездарное дерьмо.их вообще даже в массовку к Малахову стыдно позвать.убогиеpb.wtf



    Дорогой пользователь! Огромная просьба, поблагодарите релизера, оцените раздачу и оставьте свои комментарий, если Вы скачали Кольская сверхглубокая через торрент бесплатно!
    Комментировать посты могут только пользователи прошедшие не сложную регистрацию
    Показать сообщения:    

    Кольская сверхглубокая через торрент
    Скачать бесплатно Кольская сверхглубокая
    Кольская сверхглубокая скачать торрент
    Кольская сверхглубокая смотреть онлайн
    Cкачать фильм Кольская сверхглубокая бесплатно
    Кольская сверхглубокая скачать торрент в хорошем качестве
    Кольская сверхглубокая смотреть онлайн бесплатно в хорошем качестве


    Вы не можете начинать темы
    Вы не можете отвечать на сообщения
    Вы не можете редактировать свои сообщения
    Вы не можете удалять свои сообщения
    Вы не можете голосовать в опросах
    Вы не можете прикреплять файлы к сообщениям
    Вы можете скачивать файлы