Anonymous, доброй ночи, присоединяйтесь к нам в Telegram!, здесь всегда актуальный адрес сайта, оперативная поддержка и многое другое!

>

5.6

iTunes

7.4

iTunes

7.9

MVO

1

7.7

1 сезон

6.8

iTunes

7.3

1 сезон

13

6.7

1 сезон

8.3

RePack

30

PREMIUM

pack

9.9

Лицензия

ВАЖНО

ИГРА 18+

pack

7.3

RePack

MK11

7.7

RePack

jed

7.8

RePack

fifa19

8.5

RePack

RDR2

RePack

NEED FOR SPEED™ PAYBACK

4 сезон

9 сезон

Бесстыжие 9 сезон

Все сериалы

все сериалы на PB.wtf

RePack

FAR CRY 5

Anonymous, доброй ночи, мы катастрофически не успеваем собрать деньги на оплату серверов, помогите нам пожалуйста 5,10,15р., для нас важна любая помощь . В качестве благодарности мы отключим Вам всю рекламу на сайте (укажите свой ник в строку Ваше имя)!

×
  
Magnet ссылка

Обычная женщина / Сезон: 2 / Серии: 1-8 из 8 (Наталия Мещанинова) [2020, Драма, криминал, WEBRip 1080p] pb.wtf

Обычная женщина через торрент pb.wtf

Размер: 12.83 GB | Добавлен: 9 мес. назад | Торрент скачан:105 раз
Смотреть онлайн Обычная женщина | Скачать    Ребята, помогите собрать деньги на оплату серверов!!!

17-12-2020 07:22 Обычная женщина Скачать торрент  

Обычная женщина Год выпуска: 2020
Страна: Россия
Выпущено: Production, Look Film
Жанр: Драма, криминал
Продолжительность: ~ 00:36:00 серия
Субтитры: отсутствуют

Режиссер: Наталия Мещанинова

rating

В ролях: Анна Михалкова, Евгений Гришковец, Татьяна Догилева, Александра Бортич, Юлия Мельникова, Елизавета Кононова, Дарья Савельева, Николай Шрайбер, Евгения Калинец, Александр Сударев, Егор Ковалёв, Алексей Тахаров

Описание: Героиня Анны Михалковой, которая втайне от окружающих подрабатывает сутенёршей, в продолжении благополучно станет многодетной матерью, но это не помешает ей совершать новые криминальные аферы и вести разборки с бандитами, в которые теперь будет втянута уже вся её семья.

Качество: WEBRip 1080p
Формат: MKV

Видео: MPEG4 AVC Video, H264, 2.40:1, 1920x800, 25 fps, ~4400 kbps, 0.115 bit/pixel
Аудио: 48.0 kHz, AC3 Dolby Digital, 2/0 (L,R) ch, ~ 192 kbps
скриншот  скриншот  скриншот  скриншот  

General
Unique ID : 227595404242241061727525390192762214833 (0xAB3947C9D5B6EA3798440E520A2CD9B1)
Complete name : D:\Obychnaya.zhenschina.S02.2020.WEB-DL.(1080p).Getty\Obychnaya.zhenschina.s02e01.2020.WEB-DL.(1080p).Getty.mkv
Format : Matroska
Format version : Version 4 / Version 2
File size : 1.16 GiB
Duration : 36 min 14 s
Overall bit rate mode : Variable
Overall bit rate : 4 598 kb/s
Movie name : Obychnaya.zhenschina.s02e01.2020.WEB-DL.(1080p).Getty
Encoded date : UTC 2020-12-17 07:06:45
Writing application : mkvmerge v7.8.0 ('River Man') 32bit built on Mar 27 2015 16:18:02
Writing library : libebml v1.3.1 + libmatroska v1.4.2

Video
ID : 1
Format : AVC
Format/Info : Advanced Video Codec
Format profile : High@L4
Format settings : CABAC / 1 Ref Frames
Format settings, CABAC : Yes
Format settings, ReFrames : 1 frame
Format settings, GOP : M=1, N=50
Codec ID : V_MPEG4/ISO/AVC
Duration : 36 min 14 s
Bit rate mode : Variable
Bit rate : 4 404 kb/s
Maximum bit rate : 4 500 kb/s
Width : 1 920 pixels
Height : 800 pixels
Display aspect ratio : 2.40:1
Frame rate mode : Constant
Frame rate : 25.000 FPS
Color space : YUV
Chroma subsampling : 4:2:0
Bit depth : 8 bits
Scan type : Progressive
Bits/(Pixel*Frame) : 0.115
Stream size : 1.12 GiB (96%)
Default : Yes
Forced : No

Audio
ID : 2
Format : AC-3
Format/Info : Audio Coding 3
Codec ID : A_AC3
Duration : 36 min 14 s
Bit rate mode : Constant
Bit rate : 192 kb/s
Channel(s) : 2 channels
Channel positions : Front: L R
Sampling rate : 48.0 kHz
Frame rate : 31.250 FPS (1536 SPF)
Bit depth : 16 bits
Compression mode : Lossy
Stream size : 49.8 MiB (4%)
Service kind : Complete Main
Default : Yes
Forced : No

Внимание! Раздача ведётся путём добавления новых серий; при каждом добавлении создаётся новый торрент.
Чтобы начать докачку новой серии, пользователям необходимо сделать следующее:
1. Остановить скачивание;
2. Удалить старый торрент у себя из клиента (старые серии удалять не надо);
3. Скачать новый торрент и запустить его у себя в клиенте вместо старого, при этом указать клиенту путь в старую папку куда и должно происходить скачивание новых серий. Ваш клиент при этом должен произвести хеширование (проверку) старой папки и будет докачивать только те серии, которых у вас ещё нет. Старые серии при этом не удаляются, а продолжают раздаваться! Eсли вы уже удалили старые серии, то предотвратить повторную закачку старых серий можно, отжав галочку в соответствующих местах при запуске нового торрента.

pb.wtf



Скачать Обычная женщина через торрент https://img11.lostpic.net/2020/12/17/a426a7844c85b7033845dc5932e5ee07.jpg Скачать, смотреть онлайн Обычная женщина бесплантно в хорошем качестве Описание: Героиня Анны Михалковой, которая втайне от окружающих подрабатывает сутенёршей, в продолжении благополучно станет многодетной ... 10 10 12
Торрент: Зарегистрирован [2021-01-07 13:46] · скачан: 105 раз
Статус: √ проверено
Размер: 12.83 GB
Как cкачать? Как скачать Обычная женщина через торрент | UTorrent

% Раздел Тема Автор DL S | L
TNT serials [ 4.96 GB ] Обычная женщина / Сезон: 2 / Серии: 1-8 из 8 [2020 WEBRip-AVC] bober100 Скачать
2 | 0
TNT serials [ 8.68 GB ] Обычная женщина / Сезон: 2 / Серии: 1-8 из 8 [2020 WEBRip 720p] bober100 Скачать
1 | 0
TNT serials [ 4.68 GB ] Обычная женщина / Сезон: 2 / Серии: 1-8 из 8 [2020 WEBRip] bober100 Скачать
1 | 0

28-11-2019 20:33  

Отключить всю рекламу на сайте

    Дорогой пользователь! Огромная просьба, поблагодарите релизера, оцените раздачу и оставьте свои комментарий, если Вы скачали Обычная женщина через торрент бесплатно!
    Комментировать посты могут только пользователи прошедшие не сложную регистрацию
    Показать сообщения:    

    Обычная женщина через торрент
    Скачать бесплатно Обычная женщина
    Обычная женщина скачать торрент
    Обычная женщина смотреть онлайн
    Cкачать фильм Обычная женщина бесплатно
    Обычная женщина скачать торрент в хорошем качестве
    Обычная женщина смотреть онлайн бесплатно в хорошем качестве


    Вы не можете начинать темы
    Вы не можете отвечать на сообщения
    Вы не можете редактировать свои сообщения
    Вы не можете удалять свои сообщения
    Вы не можете голосовать в опросах
    Вы не можете прикреплять файлы к сообщениям
    Вы можете скачивать файлы