Anonymous, доброй ночи, присоединяйтесь к нам в Telegram!, здесь всегда актуальный адрес сайта, оперативная поддержка и многое другое!

>

5.6

iTunes

7.4

MVO

5.7

MVO

1

7.7

1 сезон

6.8

iTunes

7.3

1 сезон

13

6.7

1 сезон

8.3

RePack

30

ULTIMATE

pack

9.9

Лицензия

ВАЖНО

ИГРА 18+

pack

7.3

RePack

MK11

7.7

RePack

jed

7.8

RePack

fifa19

8.5

RePack

RDR2

RePack

NEED FOR SPEED™ PAYBACK

4 сезон

9 сезон

Бесстыжие 9 сезон

Все сериалы

все сериалы на PB.wtf

RePack

FAR CRY 5

Anonymous, доброй ночи, мы катастрофически не успеваем собрать деньги на оплату серверов, помогите нам пожалуйста 5,10,15р., для нас важна любая помощь . В качестве благодарности мы отключим Вам всю рекламу на сайте (укажите свой ник в строку Ваше имя)!

×
  
Magnet ссылка

Наша Земля: Наши океаны 3D в 3Д / Our Earth, Our Oceans 3D (Норберт Вандер, Петер Баатен / Norbert Vander, Peter Baaten) [2013, документальный, BDRip, 1080p] OverUnder / Вертикальная стереопара (VO) pb.wtf

Наша Земля: Наши океаны 3D в 3Д через торрент pb.wtf

Размер: 21.32 GB | Добавлен: 9 мес. назад | Торрент скачан:19 раз
Смотреть онлайн Наша Земля: Наши океаны 3D в 3Д | Скачать    Ребята, помогите собрать деньги на оплату серверов!!!

18-12-2020 13:38 Наша Земля: Наши океаны 3D в 3Д Скачать торрент  

Наша Земля: Наши океаны 3D / Our Earth, Our Oceans

Год выпуска: 2013
Страна: Германия (KSM GmbH)
Жанр: документальный
Продолжительность: 01:32:24

Перевод: Профессиональный (одноголосый закадровый)
Русские субтитры: нет
Режиссеры: Норберт Вандер, Петер Баатен / Norbert Vander, Peter Baaten

Описание: Что делает наш мир таким прекрасным, и в то же время таким непонятным? Что позволяет зарождаться новой жизни в местах, которые являются непригодным для жизни? В чем механизм появления чудес природы? Какие силы нужны, для того, чтобы флора и фауна развивалась в соответствии с их местонахождением? Более 2 лет съемочная группа этого фильма путешествовала по шести континентам, от одного чуда природы к другому в поисках связей, объединяющих между собой уникальную среду обитания флоры и фауны, структуры океанических течений, геологических формаций и климатических зон. В результате получено невиданное качество 3D-изображений из самых разных регионов планеты.

Сэмпл: http://sendfile.su/1588223

Качество: BDrip? 1080p
Контейнер: MKV
Формат 3D: OverUnder / Вертикальная стереопара
Порядок ракурсов: левый ракурс первый
Видео кодек: x264
Аудио кодек: AC3
Видео: AVC / High@L5.0 / 23,976 fps / 1920х2160 / 31,1 Мбит/сек
Аудио: Русский / AC3 / 48 KHz / 5.1 ch / 640 Кбит/сек (VO) (перемонтаж в 5.1 - Ash61)
Аудио 2: Английский / AC3 / 48 KHz / 5.1 ch / 640 Кбит/сек

ВНИМАНИЕ ! На встроенных ТВ-плеерах работать не будет!!!

ТВ Samsung в названии которого есть надпись Ultra HD , и LG Ultra HD 800 серии, LG C6P, Xiaomi Mi TV 2, GRUNDIG VLE 8474 BL, Samsung UE48H6200AK воспроизводят полные стереопары встроенными плеерами
Железные плееры на которых воспроизводятся полные стереопары:Popcorn C-200, Popcorn a-400, Dune HD Smart D1 , Dune HD DUO , Dune HD Smart H1 , Dune HD Smart B1 , Dune HD Max , Dune HD TV-303D, Dune HD TV-102, Dune HD Base 3D, Philips HMP7001, Aura HD, MECOOL BB2, Zidoo x9s, Lake I Cloud, MiBox 3
Чтобы изображение было на весь экран в плеере выставляем, если рип 1920х1600 - то выставляем 2.35:1 , если 1920х2160 - то выставляем 16:9
Общее
Уникальный идентификатор : 193218724838679422044180826971621819803 (0x915C92A2E905BF6BB8F6E5F06944059B)
Полное имя : F:\Iso\Our Earth, Our Oceans.Rip by SeRoGa00.mkv
Формат : Matroska
Версия формата : Version 2
Размер файла : 21,3 Гбайт
Продолжительность : 1 ч. 32 м.
Общий поток : 33,0 Мбит/сек
Дата кодирования : UTC 2020-12-18 13:02:30
Программа кодирования : mkvmerge v3.4.0 ('Rapunzel') сборка от May 15 2010 09:38:20
Библиотека кодирования : libebml v0.8.0 + libmatroska v0.9.0

Видео
Идентификатор : 1
Формат : AVC
Формат/Информация : Advanced Video Codec
Профиль формата : High@L5.0
Параметр CABAC формата : Да
Параметр ReFrames формата : 4 кадра
Идентификатор кодека : V_MPEG4/ISO/AVC
Продолжительность : 1 ч. 32 м.
Битрейт : 31,1 Мбит/сек
Ширина : 1920 пикселей
Высота : 2160 пикселей
Соотношение сторон : 0,889
Частота кадров : 23,976 кадра/сек
Цветовое пространство : YUV
Субдискретизация насыщенности : 4:2:0
Битовая глубина : 8 бит
Тип развёртки : Прогрессивная
Бит/(Пиксели*Кадры) : 0.313
Размер потока : 20,1 Гбайт (94%)
Заголовок : Rip by SeRoGa00
Библиотека кодирования : x264 core 157 r2969 d4099dd
Настройки программы : cabac=1 / ref=4 / deblock=1:-3:-3 / analyse=0x3:0x113 / me=umh / subme=10 / psy=1 / psy_rd=1.00:0.15 / mixed_ref=1 / me_range=24 / chroma_me=1 / trellis=2 / 8x8dct=1 / cqm=0 / deadzone=21,11 / fast_pskip=1 / chroma_qp_offset=-3 / threads=18 / lookahead_threads=6 / sliced_threads=0 / nr=0 / decimate=0 / interlaced=0 / bluray_compat=0 / constrained_intra=0 / bframes=10 / b_pyramid=2 / b_adapt=2 / b_bias=0 / direct=3 / weightb=1 / open_gop=0 / weightp=2 / keyint=250 / keyint_min=23 / scenecut=40 / intra_refresh=0 / rc_lookahead=60 / rc=crf / mbtree=1 / crf=16.5 / qcomp=0.60 / qpmin=10 / qpmax=69 / qpstep=4 / vbv_maxrate=40000 / vbv_bufsize=40000 / crf_max=0.0 / nal_hrd=none / filler=0 / ip_ratio=1.40 / aq=1:1.00
Default : Да
Forced : Нет

Аудио #1
Идентификатор : 2
Формат : AC-3
Формат/Информация : Audio Coding 3
Расширение режима : CM (complete main)
Параметр Endianness формата : Big
Идентификатор кодека : A_AC3
Продолжительность : 1 ч. 32 м.
Вид битрейта : Постоянный
Битрейт : 640 Кбит/сек
Каналы : 6 каналов
Расположение каналов : Front: L C R, Side: L R, LFE
Частота : 48,0 КГц
Битовая глубина : 16 бит
Метод сжатия : С потерями
Размер потока : 423 Мбайт (2%)
Язык : Russian
Default : Да
Forced : Нет

Аудио #2
Идентификатор : 3
Формат : AC-3
Формат/Информация : Audio Coding 3
Расширение режима : CM (complete main)
Параметр Endianness формата : Big
Идентификатор кодека : A_AC3
Продолжительность : 1 ч. 32 м.
Вид битрейта : Постоянный
Битрейт : 640 Кбит/сек
Каналы : 6 каналов
Расположение каналов : Front: L C R, Side: L R, LFE
Частота : 48,0 КГц
Битовая глубина : 16 бит
Метод сжатия : С потерями
Размер потока : 423 Мбайт (2%)
Язык : English
Default : Нет
Forced : Нет

Меню
00:00:00.000 : :1. Introduction
00:01:49.651 : :2. Azores
00:08:06.903 : :3. Malpelo (Columbia)
00:14:55.895 : :4. Shark Alley (South Africa)
00:20:57.256 : :5. Big Five of South Africa
00:31:01.276 : :6. Canha National Park (India)
00:41:43.126 : :7. Guanacaste (Costa Rica)
00:52:07.124 : :8. Patagonia (Argentina)
01:04:02.255 : :9. Hawaii
01:13:01.919 : :10. Yellowstone National Park (USA)
01:20:20.441 : :11. Grand Canyon National Park (USA)
01:24:56.383 : :12. Marshall Islands
01:30:54.449 : :13. Final Titles
скриншот  

скриншот  

скриншот  

скриншот  

скриншот  

скриншот  

скриншот  

скриншот  
pb.wtf



Скачать Наша Земля: Наши океаны 3D в 3Д через торрент https://a.radikal.ru/a09/2012/02/fa5ad7415668.png Скачать, смотреть онлайн Наша Земля: Наши океаны 3D в 3Д бесплантно в хорошем качестве Описание: Что делает наш мир таким прекрасным, и в то же время таким непонятным? Что позволяет зарождаться новой жизни в местах, которые ... 10 10 1
Торрент: Зарегистрирован [2020-12-18 13:38] · скачан: 19 раз
Статус: √ проверено
Размер: 21.32 GB
Как cкачать? Как скачать Наша Земля: Наши океаны 3D в 3Д через торрент | UTorrent

28-11-2019 20:33  

Отключить всю рекламу на сайте

    Дорогой пользователь! Огромная просьба, поблагодарите релизера, оцените раздачу и оставьте свои комментарий, если Вы скачали Наша Земля: Наши океаны 3D в 3Д через торрент бесплатно!
    Комментировать посты могут только пользователи прошедшие не сложную регистрацию
    Показать сообщения:    

    Наша Земля: Наши океаны 3D в 3Д через торрент
    Скачать бесплатно Наша Земля: Наши океаны 3D в 3Д
    Наша Земля: Наши океаны 3D в 3Д скачать торрент
    Наша Земля: Наши океаны 3D в 3Д смотреть онлайн
    Cкачать фильм Наша Земля: Наши океаны 3D в 3Д бесплатно
    Наша Земля: Наши океаны 3D в 3Д скачать торрент в хорошем качестве
    Наша Земля: Наши океаны 3D в 3Д смотреть онлайн бесплатно в хорошем качестве


    Вы не можете начинать темы
    Вы не можете отвечать на сообщения
    Вы не можете редактировать свои сообщения
    Вы не можете удалять свои сообщения
    Вы не можете голосовать в опросах
    Вы не можете прикреплять файлы к сообщениям
    Вы можете скачивать файлы