2 сезон

iTunes

MVO

1

2 сезон

iTunes

iTunes

1 сезон

RePack

30

Новинка

ВАЖНО

ИГРА 18+

pack

RePack

MK11
pack

Легкие деньги

RePack

jed

RePack

fifa19

RePack

RDR2

RePack

NEED FOR SPEED™ PAYBACK

4 сезон

9 сезон

Бесстыжие 9 сезон

Все сериалы

все сериалы на PB.wtf

RePack

FAR CRY 5

Anonymous, доброе утро, мы не успеваем собрать деньги на оплату серверов за декабрь и январь, помогите нам пожалуйста в это трудное время. В качестве благодарности мы отключим Вам всю рекламу на сайте (укажите свой ник в строку Ваше имя)!

×
  
Magnet ссылка

Семейка Бигфутов / Bigfoot Family (Жереми Дегрусон, Бен Стассен) [2020, Мультфильм, приключения, семейный, BDRip 720p] DUB [iTunes] pb.wtf

Семейка Бигфутов через торрент pb.wtf

Раздают: 14 [ 489 KB/s ]
Размер: 4.78 GB | Добавлен: 1 мес. назад | Торрент скачан:133 раза
Скачать  

18-12-2020 18:15 Семейка Бигфутов Скачать торрент  

Семейка Бигфутов | Bigfoot Family
Год выпуска: 2020
Страна: Бельгия, Франция
Выпущено: Belga Productions, Illuminata Pictures, nWave Pictures
Жанр: Мультфильм, приключения, семейный
Продолжительность: 01:28:39
Перевод: Дублированное | iTunes
Субтитры: Русские (Full), английские

Режиссер: Жереми Дегрусон, Бен Стассен

rating

В ролях: Килиан Труильяр, Алексис Виктор, Мари Шевало, Фредерик Сутерель, Себастьян Дежу, Пьер Тессье, Ксавьер Фаньон, Клара Куиличини

Описание: Все семьи разные, но эта – самая разношерстная. Папа когда-то превратился в Бигфута, сын унаследовал его суперспособности и умение понимать язык животных, так еще и в доме вместе с ними и мамой живет целый зоопарк – огромный медведь, неутомимая белка и беспокойный енот со множеством очаровательных детенышей. Когда же уникальному заповеднику на Аляске понадобится помощь, вся семейка Бигфутов отправится в большое путешествие и покажет всему миру, на что способна их команда…

Качество: BDRip 720p
Формат: MKV

Видео: MPEG-4 AVC, 1280x536, 6699 Kbit/s, 24.000 fps
Аудио#1: 48 kHz, AC3, 5.1, 384 Kbps | iTunes | RUS |
Аудио#2: 48 kHz, AC3, 5.1, 640 Kbps | Оригинал | ENG |
скриншот  скриншот  скриншот  скриншот  скриншот  

General
Unique ID : 294515731566723075513497328664150673063 (0xDD91AAA9B059100BBE095BED069606A7)
Complete name : E:VideoFirstBigfoot.Family.2020.BDRip.720p.seleZen.mkv
Format : Matroska
Format version : Version 4
File size : 4.78 GiB
Duration : 1 h 28 min
Overall bit rate : 7 725 kb/s
Movie name : Bigfoot.Family.2020. from seleZen
Encoded date : UTC 2020-12-18 18:05:56
Writing application : mkvmerge v40.0.0 ('Old Town Road + Pony') 64-bit
Writing library : libebml v1.3.9 + libmatroska v1.5.2

Video
ID : 1
Format : AVC
Format/Info : Advanced Video Codec
Format profile : High@L4.1
Format settings : CABAC / 12 Ref Frames
Format settings, CABAC : Yes
Format settings, Reference : 12 frames
Codec ID : V_MPEG4/ISO/AVC
Duration : 1 h 28 min
Bit rate : 6 699 kb/s
Width : 1 280 pixels
Height : 536 pixels
Display aspect ratio : 2.40:1
Frame rate mode : Constant
Frame rate : 24.000 FPS
Color space : YUV
Chroma subsampling : 4:2:0
Bit depth : 8 bits
Scan type : Progressive
Bits/(Pixel*Frame) : 0.407
Stream size : 4.14 GiB (87%)
Title : iFT
Writing library : x264 core 161 r3018+53 ~ Encoded by Mocunaman in Portugal
Encoding settings : cabac=1 / ref=12 / deblock=1:-3:-3 / analyse=0x3:0x113 / me=umh / subme=11 / psy=1 / fade_compensate=0.00 / psy_rd=0.80:0.00 / mixed_ref=1 / me_range=32 / chroma_me=1 / trellis=2 / 8x8dct=1 / cqm=0 / deadzone=21,11 / fast_pskip=0 / chroma_qp_offset=-2 / threads=17 / lookahead_threads=2 / sliced_threads=0 / nr=0 / decimate=0 / interlaced=0 / bluray_compat=0 / constrained_intra=0 / fgo=0 / bframes=8 / b_pyramid=2 / b_adapt=2 / b_bias=0 / direct=3 / weightb=1 / open_gop=0 / weightp=2 / keyint=250 / keyint_min=24 / scenecut=40 / intra_refresh=0 / rc_lookahead=60 / rc=crf / mbtree=0 / crf=15.8000 / qcomp=0.65 / qpmin=0:0:0 / qpmax=69:69:69 / qpstep=4 / vbv_maxrate=62500 / vbv_bufsize=78125 / crf_max=0.0 / nal_hrd=none / filler=0 / ip_ratio=1.30 / pb_ratio=1.20 / aq=3:0.90 / aq-sensitivity=10.00 / aq-factor=1.00:1.00:1.00 / aq2=0 / aq3=0 / zones=0,3895,crf=13.8/4615,6175,crf=14.8/7016,8437,crf=14.8/10213,12743,crf=14.8/14332,15892,crf=14.8/17836,24076,crf=14.8/24100,27532,crf=14.8/32971,36979,crf=13.8/37839,40319,crf=14.8/40559,44927,crf=13.8/45959,48167,crf=14.8/50999,55847,crf=13.8/60961,68497,crf=14.8/72121,76249,crf=14.8/77233,81478,crf=14.8/86249,104417,crf=14.5/104825,116633,crf=14.5/120449,122912,crf=14.8
Language : English
Default : Yes
Forced : No
Color range : Limited
Color primaries : BT.709
Transfer characteristics : BT.709
Matrix coefficients : BT.709

Audio #1
ID : 2
Format : AC-3
Format/Info : Audio Coding 3
Commercial name : Dolby Digital
Codec ID : A_AC3
Duration : 1 h 28 min
Bit rate mode : Constant
Bit rate : 384 kb/s
Channel(s) : 6 channels
Channel layout : L R C LFE Ls Rs
Sampling rate : 48.0 kHz
Frame rate : 31.250 FPS (1536 SPF)
Compression mode : Lossy
Stream size : 243 MiB (5%)
Title : iTunes
Language : Russian
Service kind : Complete Main
Default : Yes
Forced : Yes

Audio #2
ID : 3
Format : AC-3
Format/Info : Audio Coding 3
Commercial name : Dolby Digital
Codec ID : A_AC3
Duration : 1 h 28 min
Bit rate mode : Constant
Bit rate : 640 kb/s
Channel(s) : 6 channels
Channel layout : L R C LFE Ls Rs
Sampling rate : 48.0 kHz
Frame rate : 31.250 FPS (1536 SPF)
Compression mode : Lossy
Stream size : 405 MiB (8%)
Title : Original
Language : English
Service kind : Complete Main
Default : No
Forced : No

Text #1
ID : 4
Format : UTF-8
Codec ID : S_TEXT/UTF8
Codec ID/Info : UTF-8 Plain Text
Duration : 1 h 21 min
Bit rate : 101 b/s
Count of elements : 1110
Stream size : 60.1 KiB (0%)
Title : Full
Language : Russian
Default : No
Forced : No

Text #2
ID : 5
Format : UTF-8
Codec ID : S_TEXT/UTF8
Codec ID/Info : UTF-8 Plain Text
Duration : 1 h 20 min
Bit rate : 56 b/s
Count of elements : 951
Stream size : 33.6 KiB (0%)
Language : English
Default : No
Forced : No

Menu
00:00:00.000 : :Chapter 01
00:05:24.042 : :Chapter 02
00:12:17.375 : :Chapter 03
00:19:23.750 : :Chapter 04
00:28:15.542 : :Chapter 05
00:33:58.958 : :Chapter 06
00:42:16.625 : :Chapter 07
00:48:47.583 : :Chapter 08
00:55:24.708 : :Chapter 09
00:59:53.708 : :Chapter 10
01:07:59.333 : :Chapter 11
01:14:07.792 : :Chapter 12

pb.wtf



Скачать Семейка Бигфутов через торрент https://i114.fastpic.ru/big/2020/1127/a6/cff44c76c7de4792a59ee59b1ad4b8a6.jpg Скачать фильм Семейка Бигфутов через торрент бесплантно в хорошем качестве Описание: Все семьи разные, но эта – самая разношерстная. Папа когда-то превратился в Бигфута, сын унаследовал его суперспособности и ... 10 10 6
Торрент: Зарегистрирован [2020-12-18 18:15] · скачан: 133 раз
Статус: √ проверено
Размер: 4.78 GB
Как cкачать? Как скачать Семейка Бигфутов через торрент | UTorrent

% Раздел Тема Автор DL S | L
Иностранные мультфильмы [ 1.46 GB ] Семейка Бигфутов / Bigfoot Family [2020 Мультфильм полнометражный WEB-DLRip] - Twi7ter Скачать
37 | 0
Зарубежные Мультфильмы (WEB-DL 720p, 1080p) [ 3.86 GB ] Семейка Бигфутов / Bigfoot Family [2020 Мультфильм WEB-DL 1080p] bober100 Скачать
13 | 0
Зарубежные Мультфильмы (BDRip 1080p, 720p, Blu-ray, BD-Remux) [ 8.71 GB ] Семейка Бигфутов / Bigfoot Family [2020 Мультфильм BDRip 1080p] bober100 Скачать
15 | 0
Иностранные мультфильмы [ 2.06 GB ] Семейка Бигфутов / Bigfoot Family [2020 Мультфильм полнометражный HDRip-AVC] от MediaBit Lithuania Скачать
8 | 0
Иностранные мультфильмы [ 1.46 GB ] Семейка Бигфутов / Bigfoot Family [2020 Мультфильм WEB-DLRip] bober100 Скачать
17 | 0

28-11-2019 20:33  

Отключить всю рекламу на сайте

    Дорогой пользователь! Огромная просьба, поблагодарите релизера, оцените раздачу и оставьте свои комментарий, если Вы скачали Семейка Бигфутов через торрент бесплатно! Внесите свою лепту в развитие PiratBit!
    Комментировать посты могут только пользователи прошедшие не сложную регистрацию
    Показать сообщения:    

    Семейка Бигфутов через торрент
    Скачать бесплатно Семейка Бигфутов
    Семейка Бигфутов скачать торрент
    Семейка Бигфутов смотреть онлайн
    Cкачать фильм Семейка Бигфутов бесплатно
    Семейка Бигфутов скачать торрент в хорошем качестве
    Семейка Бигфутов смотреть онлайн бесплатно в хорошем качестве


    Вы не можете начинать темы
    Вы не можете отвечать на сообщения
    Вы не можете редактировать свои сообщения
    Вы не можете удалять свои сообщения
    Вы не можете голосовать в опросах
    Вы не можете прикреплять файлы к сообщениям
    Вы можете скачивать файлы