1 сезон

3 сезон

iTunes

1

iTunes

DUB Netflix

iTunes

13

1 сезон

RePack

30

Deluxe

pack

Легкие деньги

ВАЖНО

ИГРА 18+

pack

RePack

MK11

RePack

jed

RePack

fifa19

RePack

RDR2

RePack

NEED FOR SPEED™ PAYBACK

4 сезон

9 сезон

Бесстыжие 9 сезон

Все сериалы

все сериалы на PB.wtf

RePack

FAR CRY 5

Anonymous, добрый день, мы не успеваем до 1 числа собрать деньги на оплату серверов, помогите нам пожалуйста в это трудное время. В качестве благодарности мы отключим Вам всю рекламу на сайте (укажите свой ник в строку Ваше имя)!

×
  
Magnet ссылка

Эйс Вентура: Розыск домашних животных / Ace Ventura: Pet Detective (Том Шэдьяк) [1994 г., комедия, детектив, приключения, BDRip (HEVC)1080p] [DUB] + 7x[AVO] pb.wtf

Эйс Вентура: Розыск домашних животных через торрент pb.wtf

Раздают: 2 [ 0 KB/s ]
Размер: 5.11 GB | Добавлен: 1 мес. 11 д. назад | Торрент скачан:62 раза
Скачать  

18-12-2020 21:28 Эйс Вентура: Розыск домашних животных Скачать торрент  

Эйс Вентура: Розыск домашних животных / Ace Ventura: Pet Detective
«Он вне конкуренции!»


Год выпуска: 1994
Страна: США
Жанр: комедия, детектив, приключения
Продолжительность: 01:26:00
Перевод 1: Профессиональный (дублированный) Варус Видео
Перевод 2: Авторский (одноголосый закадровый) Михалев
Перевод 3: Авторский (одноголосый закадровый) Живов
Перевод 4: Авторский (одноголосый закадровый) Кашкин
Перевод 5: Авторский (одноголосый закадровый) Кузнецов
Перевод 6: Авторский (одноголосый закадровый) Котов
Перевод 7: Авторский (одноголосый закадровый) Махонько
Перевод 8: Авторский (одноголосый закадровый) Латышев
Режиссер: Том Шедьяк / Tom Shadyac

В ролях: Джим Керри, Кортни Кокс, Шон Янг, Тоун Лок, Дэн Марино, Ноубл Уиллингэм, Трой Эванс, Рейнор Шайни, Удо Кир, Фрэнк Адонис

Описание: Он — лучший в своем деле, единственный и неповторимый! Он — Эйс Вентура, детектив по розыску домашних любимцев. Когда таинственные злоумышленники похищают дельфина по кличке «Снежинка», талисман местной футбольной команды «Дельфины», Эйс тут же приступает к работе, проявляя чудеса изобретательности. История принимает странный оборот, когда похищают еще и ведущего игрока «Дельфинов». Теперь Эйсу приходится разыскивать сразу двух млекопитающих. Он сталкивается «нос к носу» с акулой — людоедом, спасает любимую команду и очаровывает женщин. Находится ли он «под прикрытием», под огнем или под водой, он обязательно найдет то, что ищет.

rating

Качество видео: BDRip (HEVC) 1080p
Формат: MKV
Видео кодек: x.265
Аудио кодек: AC3
Видео: HEVC/H.265, 1920x1080, 23,976 fps, ~6389 Kbps, 10 bit
Аудио #1: 48 kHz, AC3 Dolby Digital, 2 ch, ~192.00 kbps avg - DUB
Аудио #2: 48 kHz, AC3 Dolby Digital, 6 ch, ~384.00 kbps avg - Михалев
Аудио #3: 48 kHz, AC3 Dolby Digital, 6 ch, ~384.00 kbps avg - Живов
Аудио #4: 48 kHz, AC3 Dolby Digital, 2 ch, ~192.00 kbps avg - Кашкин
Аудио #5: 48 kHz, AC3 Dolby Digital, 2 ch, ~192.00 kbps avg - Кузнецов
Аудио #6: 48 kHz, AC3 Dolby Digital, 2 ch, ~224.00 kbps avg - Котов
Аудио #7: 48 kHz, AC3 Dolby Digital, 2 ch, ~192.00 kbps avg - Махонько
Аудио #8: 48 kHz, AC3 Dolby Digital, 2 ch, ~192.00 kbps avg - Латышев
General
Unique ID : 182678082560490232068673333804899930148 (0x896E84D929CEDF57A309578791E29024)
Complete name : G:\ФИЛЬМЫ\Ace Ventura_ Pet Detective.1994.BDRip (HEVC)1080p.10bit.[DUB], 7x[AVO].mkv
Format : Matroska
Format version : Version 4
File size : 5.11 GiB
Duration : 1 h 26 min
Overall bit rate : 8 510 kb/s
Movie name : Ace Ventura_ Pet Detective.1994.BDRip (HEVC)1080p.10bit.[DUB], 7x[AVO]
Encoded date : UTC 2020-12-18 20:56:07
Writing application : mkvmerge v6.1.0 ('Old Devil') built on Mar 2 2013 14:32:37
Writing library : libebml v1.3.0 + libmatroska v1.4.0

Video
ID : 1
Format : HEVC
Format/Info : High Efficiency Video Coding
Format profile : Main 10@L4@Main
Codec ID : V_MPEGH/ISO/HEVC
Duration : 1 h 26 min
Bit rate : 6 389 kb/s
Width : 1 920 pixels
Height : 1 080 pixels
Display aspect ratio : 16:9
Frame rate mode : Constant
Frame rate : 23.976 (24000/1001) FPS
Color space : YUV
Chroma subsampling : 4:2:0
Bit depth : 10 bits
Bits/(Pixel*Frame) : 0.129
Stream size : 3.84 GiB (75%)
Title : Ace Ventura_ Pet Detective.1994.BDRip (HEVC)1080p.10bit.[DUB], 7x[AVO]
Writing library : x265 2.5+3-3f6841d271e3:[Windows][MSVC 1910][64 bit] 10bit
Encoding settings : cpuid=1173503 / frame-threads=2 / numa-pools=4 / wpp / no-pmode / no-pme / no-psnr / no-ssim / log-level=2 / input-csp=1 / input-res=1920x1080 / interlace=0 / total-frames=123730 / level-idc=0 / high-tier=1 / uhd-bd=0 / ref=4 / no-allow-non-conformance / no-repeat-headers / annexb / no-aud / no-hrd / info / hash=0 / no-temporal-layers / open-gop / min-keyint=23 / keyint=250 / bframes=8 / b-adapt=2 / b-pyramid / bframe-bias=0 / rc-lookahead=50 / lookahead-slices=4 / scenecut=40 / no-intra-refresh / ctu=64 / min-cu-size=8 / no-rect / no-amp / max-tu-size=32 / tu-inter-depth=1 / tu-intra-depth=1 / limit-tu=0 / rdoq-level=2 / dynamic-rd=0.00 / no-ssim-rd / signhide / no-tskip / nr-intra=0 / nr-inter=0 / no-constrained-intra / no-strong-intra-smoothing / max-merge=3 / limit-refs=3 / limit-modes / me=3 / subme=3 / merange=57 / temporal-mvp / weightp / no-weightb / no-analyze-src-pics / deblock=-1:-1 / no-sao / no-sao-non-deblock / rd=4 / no-early-skip / no-rskip / no-fast-intra / no-tskip-fast / no-cu-lossless / b-intra / rdpenalty=0 / psy-rd=1.00 / psy-rdoq=2.50 / no-rd-refine / analysis-reuse-mode=0 / no-lossless / cbqpoffs=0 / crqpoffs=0 / rc=crf / crf=21.0 / qcomp=0.60 / qpstep=4 / stats-write=0 / stats-read=0 / ipratio=1.40 / pbratio=1.30 / aq-mode=3 / aq-strength=0.60 / cutree / zone-count=0 / no-strict-cbr / qg-size=32 / no-rc-grain / qpmax=69 / qpmin=0 / no-const-vbv / sar=0 / overscan=0 / videoformat=5 / range=0 / colorprim=2 / transfer=2 / colormatrix=2 / chromaloc=0 / display-window=0 / max-cll=0,0 / min-luma=0 / max-luma=1023 / log2-max-poc-lsb=8 / vui-timing-info / vui-hrd-info / slices=1 / opt-qp-pps / opt-ref-list-length-pps / no-multi-pass-opt-rps / scenecut-bias=0.05 / no-opt-cu-delta-qp / no-aq-motion / no-hdr / no-hdr-opt / no-dhdr10-opt / analysis-reuse-level=5 / scale-factor=0 / refine-intra=0 / refine-inter=0 / refine-mv=0 / no-limit-sao / ctu-info=0
Language : English
Default : Yes
Forced : No
Duration_Source : General_Duration

Audio #1
ID : 2
Format : AC-3
Format/Info : Audio Coding 3
Commercial name : Dolby Digital
Codec ID : A_AC3
Duration : 1 h 26 min
Bit rate mode : Constant
Bit rate : 192 kb/s
Channel(s) : 2 channels
Channel layout : L R
Sampling rate : 48.0 kHz
Frame rate : 31.250 FPS (1536 SPF)
Compression mode : Lossy
Stream size : 118 MiB (2%)
Title : DUB (Варус)
Language : Russian
Service kind : Complete Main
Default : Yes
Forced : No
Duration_Source : General_Duration

Audio #2
ID : 3
Format : AC-3
Format/Info : Audio Coding 3
Commercial name : Dolby Digital
Codec ID : A_AC3
Duration : 1 h 26 min
Bit rate mode : Constant
Bit rate : 384 kb/s
Channel(s) : 6 channels
Channel layout : L R C LFE Ls Rs
Sampling rate : 48.0 kHz
Frame rate : 31.250 FPS (1536 SPF)
Compression mode : Lossy
Stream size : 236 MiB (5%)
Title : Mihalev
Language : Russian
Service kind : Complete Main
Default : No
Forced : No
Duration_Source : General_Duration

Audio #3
ID : 4
Format : AC-3
Format/Info : Audio Coding 3
Commercial name : Dolby Digital
Codec ID : A_AC3
Duration : 1 h 26 min
Bit rate mode : Constant
Bit rate : 384 kb/s
Channel(s) : 6 channels
Channel layout : L R C LFE Ls Rs
Sampling rate : 48.0 kHz
Frame rate : 31.250 FPS (1536 SPF)
Compression mode : Lossy
Stream size : 236 MiB (5%)
Title : Jyvov
Language : Russian
Service kind : Complete Main
Default : No
Forced : No
Duration_Source : General_Duration

Audio #4
ID : 5
Format : AC-3
Format/Info : Audio Coding 3
Commercial name : Dolby Digital
Codec ID : A_AC3
Duration : 1 h 26 min
Bit rate mode : Constant
Bit rate : 192 kb/s
Channel(s) : 2 channels
Channel layout : L R
Sampling rate : 48.0 kHz
Frame rate : 31.250 FPS (1536 SPF)
Compression mode : Lossy
Stream size : 118 MiB (2%)
Title : Kashkin
Language : Russian
Service kind : Complete Main
Default : No
Forced : No
Duration_Source : General_Duration

Audio #5
ID : 6
Format : AC-3
Format/Info : Audio Coding 3
Commercial name : Dolby Digital
Codec ID : A_AC3
Duration : 1 h 26 min
Bit rate mode : Constant
Bit rate : 192 kb/s
Channel(s) : 2 channels
Channel layout : L R
Sampling rate : 48.0 kHz
Frame rate : 31.250 FPS (1536 SPF)
Compression mode : Lossy
Stream size : 118 MiB (2%)
Title : Kuznecov
Language : Russian
Service kind : Complete Main
Default : No
Forced : No
Duration_Source : General_Duration

Audio #6
ID : 7
Format : AC-3
Format/Info : Audio Coding 3
Commercial name : Dolby Digital
Codec ID : A_AC3
Duration : 1 h 26 min
Bit rate mode : Constant
Bit rate : 224 kb/s
Channel(s) : 2 channels
Channel layout : L R
Sampling rate : 48.0 kHz
Frame rate : 31.250 FPS (1536 SPF)
Compression mode : Lossy
Stream size : 138 MiB (3%)
Title : Kotov
Language : Russian
Service kind : Complete Main
Default : No
Forced : No
Duration_Source : General_Duration

Audio #7
ID : 8
Format : AC-3
Format/Info : Audio Coding 3
Commercial name : Dolby Digital
Codec ID : A_AC3
Duration : 1 h 26 min
Bit rate mode : Constant
Bit rate : 192 kb/s
Channel(s) : 2 channels
Channel layout : L R
Sampling rate : 48.0 kHz
Frame rate : 31.250 FPS (1536 SPF)
Compression mode : Lossy
Stream size : 118 MiB (2%)
Title : Mahonko
Language : Russian
Service kind : Complete Main
Default : No
Forced : No
Duration_Source : General_Duration

Audio #8
ID : 9
Format : AC-3
Format/Info : Audio Coding 3
Commercial name : Dolby Digital
Codec ID : A_AC3
Duration : 1 h 26 min
Bit rate mode : Constant
Bit rate : 192 kb/s
Channel(s) : 2 channels
Channel layout : L R
Sampling rate : 48.0 kHz
Frame rate : 31.250 FPS (1536 SPF)
Compression mode : Lossy
Stream size : 118 MiB (2%)
Title : Latyshev
Language : Russian
Service kind : Complete Main
Default : No
Forced : No
Duration_Source : General_Duration

Menu
00:00:00.000 : en:Special Delivery
00:03:39.010 : en:Dog Swap
00:05:47.847 : en:Real Friendly Around Here
00:06:43.320 : en:Snowflake Is Kidnapped!
00:07:49.052 : en:Ace's Kingdom
00:11:01.202 : en:Sweet Melissa
00:13:28.641 : en:Ace Is on the Case
00:15:01.526 : en:Tanked Up
00:18:12.925 : en:Lt. Einhorn
00:22:55.416 : en:New England Clam Chowder
00:25:42.291 : en:Camp's Party
00:28:20.073 : en:Do Not Go in There!
00:33:16.411 : en:All About the Ring
00:36:44.202 : en:Saddlebags
00:38:35.146 : en:Scene of the Crime
00:42:58.117 : en:The Missing Player
00:46:30.454 : en:I Must Be Tired
00:47:49.158 : en:Wow! Ray Finkle's House
00:52:26.894 : en:They've Got Dan Marino
00:54:37.483 : en:Your Gun Is Digging Into My Hip
00:58:17.452 : en:Master of Disguise
01:00:40.303 : en:Finkle's Grabbag
01:04:04.591 : en:The Truth Dawns
01:07:41.891 : en:Tailing Einhorn
01:10:39.527 : en:Nap Time
01:12:20.795 : en:Penalty on Ace
01:14:09.111 : en:Trouble with the Lady
01:15:41.078 : en:Captain Winkey!
01:19:33.310 : en:Lover of All Animals
01:21:59.540 : en:End Credits
скриншот   скриншот   скриншот   скриншот   скриншот  
pb.wtf



Скачать Эйс Вентура: Розыск домашних животных через торрент http://i64.fastpic.ru/big/2014/1017/6c/f8de89dabf5c27e5be5cb24409c3576c.jpg Скачать фильм Эйс Вентура: Розыск домашних животных через торрент бесплантно в хорошем качестве Описание: Он — лучший в своем деле, единственный и неповторимый! Он — Эйс Вентура, детектив по розыску домашних любимцев. Когда ... 9.3 10 13
Info! Золотая раздача, скачанное не засчитывается.
Торрент: Зарегистрирован [2021-05-05 13:31] · скачан: 62 раз
Статус: √ проверено
Размер: 5.11 GB
Как cкачать? Как скачать Эйс Вентура: Розыск домашних животных через торрент | UTorrent

% Раздел Тема Автор DL S | L
Фильмы [HD 720p, 1080p] (Хороший звук DUB, MVO) [ 7.93 GB ] Эйс Вентура: Розыск домашних животных / Ace Ventura: Pet Detective [1994 BDRip 1080p ] Бумер Скачать
1 | 0

28-11-2019 20:33  

Отключить всю рекламу на сайте


05-05-2021 13:58 Эйс Вентура: Розыск домашних животных Скачать торрент  

Бомба! pb.wtf



    Дорогой пользователь! Огромная просьба, поблагодарите релизера, оцените раздачу и оставьте свои комментарий, если Вы скачали Эйс Вентура: Розыск домашних животных через торрент бесплатно! Внесите свою лепту в развитие PiratBit!
    Комментировать посты могут только пользователи прошедшие не сложную регистрацию
    Показать сообщения:    

    Эйс Вентура: Розыск домашних животных через торрент
    Скачать бесплатно Эйс Вентура: Розыск домашних животных
    Эйс Вентура: Розыск домашних животных скачать торрент
    Эйс Вентура: Розыск домашних животных смотреть онлайн
    Cкачать фильм Эйс Вентура: Розыск домашних животных бесплатно
    Эйс Вентура: Розыск домашних животных скачать торрент в хорошем качестве
    Эйс Вентура: Розыск домашних животных смотреть онлайн бесплатно в хорошем качестве


    Вы не можете начинать темы
    Вы не можете отвечать на сообщения
    Вы не можете редактировать свои сообщения
    Вы не можете удалять свои сообщения
    Вы не можете голосовать в опросах
    Вы не можете прикреплять файлы к сообщениям
    Вы можете скачивать файлы