2 сезон

iTunes

MVO

1

2 сезон

iTunes

iTunes

1 сезон

RePack

30

Ultimate

ВАЖНО

ИГРА 18+

pack

RePack

MK11
pack

Легкие деньги

RePack

jed

RePack

fifa19

RePack

RDR2

RePack

NEED FOR SPEED™ PAYBACK

4 сезон

9 сезон

Бесстыжие 9 сезон

Все сериалы

все сериалы на PB.wtf

RePack

FAR CRY 5

Anonymous, добрый вечер, мы не успеваем собрать деньги на оплату серверов за декабрь и январь, помогите нам пожалуйста в это трудное время. В качестве благодарности мы отключим Вам всю рекламу на сайте (укажите свой ник в строку Ваше имя)!

×
  
Magnet ссылка

Бессмертная гвардия / The Old Guard (Джина Принс-Байтвуд) [2020, Фэнтези, боевик, WEB-DLRip - HEVC 1080p 10 bit 60 FPS, DUB] pb.wtf

Бессмертная гвардия через торрент pb.wtf

Раздают: 7 [ 0 KB/s ]
Размер: 4.05 GB | Добавлен: 25 д. назад | Торрент скачан:109 раз
Скачать  

21-12-2020 17:32 Бессмертная гвардия Скачать торрент  

Бессмертная гвардия - The Old Guard«Forever is Harder Than It Looks»

Год выпуска: 2020
Страна: США
Жанр: фэнтези, боевик

Продолжительность: 02:05:36
Перевод: Дубляж
Субтитры: есть

Режиссер: Джина Принс-Байтвуд

В ролях: Шарлиз Терон, Кики Лэйн, Маттиас Шонартс, Марван Кензари, Лука Маринелли, Чиветель Эджиофор, Гарри Меллинг, Вероника Нго, Наташа Карам, Метте Таули.

Описание:
Скрытая группа бессмертных наёмников-убийц под командованием молодой и беспринципной Андромахи Энди много веков защищала людей от разнообразных опасностей. Их невозможно поймать, убить, раскрыть. Каждый из них обладает невероятным сверхспособностями, которые всегда используют по назначению. В один из обычных дней команда отправляется на очередную миссию. Случайно они узнают о существовании ещё нескольких бессмертных с экстраординарными способностями. Один из бессмертных присоединяет к группе Энди. Группа узнаёт, что их секрет раскрыли, и некто искусственным путём пытается создать похожих бессмертных, чтобы заработать на них. Энди со своей группой предстоит вступить в неравную схватку с надвигающейся угрозой.

Мировая премьера: 10 июля 2020


Качество: WEB-DLRip 1080p by DD2D3
Исходник: WEB-DL-HEVC 1080p от селезень | HDR |
Формат: MKV
Видео кодек: V_MPEGH/ISO/HEVC
Аудио кодек: AC3
Видео: V_MPEGH/ISO/HEVC; 1920x804 (2.40:1); 4003 Kbps; 60 fps; 0,043 bpp
Аудио: русский; AC3+; 640 Kbps; CBR; 6 ch
Навигация по главам: нет



General
Unique ID : 219935363187917691675507729367390150829 (0xA576029B1CCE5EA6BAB145039CDEE0AD)
Complete name : D:\The Old Guard (2020) BDRip - HEVC 1080p 10 bit 60 FPS.mkv
Format : Matroska
Format version : Version 4
File size : 4.05 GiB
Duration : 2 h 5 min
Overall bit rate : 4 613 kb/s
Movie name : Rip by from DD2D3
Encoded date : UTC 2020-12-21 16:59:20
Writing application : mkvmerge v10.0.0 ('To Drown In You') 32bit
Writing library : libebml v1.3.4 + libmatroska v1.4.5
Attachments : poster

Video
ID : 1
Format : HEVC
Format/Info : High Efficiency Video Coding
Format profile : Main 10@L4.1@Main
Codec ID : V_MPEGH/ISO/HEVC
Duration : 2 h 4 min
Bit rate : 4 004 kb/s
Width : 1 920 pixels
Height : 804 pixels
Display aspect ratio : 2.40:1
Frame rate mode : Constant
Frame rate : 60.000 FPS
Color space : YUV
Chroma subsampling : 4:2:0
Bit depth : 10 bits
Bits/(Pixel*Frame) : 0.043
Stream size : 3.48 GiB (86%)
Writing library : x265 2.3+33-0b7d54dbb71a87a0:[Windows][MSVC 1800][64 bit] 10bit: KG7x [x265.ru]
Encoding settings : cpuid=1173503 / frame-threads=2 / numa-pools=4 / wpp / no-pmode / no-pme / no-psnr / no-ssim / log-level=2 / input-csp=1 / input-res=1920x804 / interlace=0 / total-frames=448106 / level-idc=41 / high-tier=1 / uhd-bd=0 / ref=3 / no-allow-non-conformance / no-repeat-headers / annexb / no-aud / no-hrd / info / hash=0 / no-temporal-layers / open-gop / min-keyint=25 / keyint=250 / bframes=4 / b-adapt=2 / b-pyramid / bframe-bias=0 / rc-lookahead=20 / lookahead-slices=5 / scenecut=40 / no-intra-refresh / ctu=64 / min-cu-size=8 / no-rect / no-amp / max-tu-size=32 / tu-inter-depth=1 / tu-intra-depth=1 / limit-tu=0 / rdoq-level=0 / dynamic-rd=0.00 / no-ssim-rd / signhide / no-tskip / nr-intra=0 / nr-inter=0 / no-constrained-intra / strong-intra-smoothing / max-merge=2 / limit-refs=3 / no-limit-modes / me=1 / subme=2 / merange=57 / temporal-mvp / weightp / no-weightb / no-analyze-src-pics / deblock=0:0 / sao / no-sao-non-deblock / rd=3 / no-early-skip / rskip / no-fast-intra / no-tskip-fast / no-cu-lossless / no-b-intra / rdpenalty=0 / psy-rd=2.00 / psy-rdoq=0.00 / no-rd-refine / analysis-mode=0 / no-lossless / cbqpoffs=0 / crqpoffs=0 / rc=abr / bitrate=4000 / qcomp=0.60 / qpstep=4 / stats-write=0 / stats-read=2 / cplxblur=20.0 / qblur=0.5 / ipratio=1.40 / pbratio=1.30 / aq-mode=1 / aq-strength=1.00 / cutree / zone-count=0 / no-strict-cbr / qg-size=32 / no-rc-grain / qpmax=69 / qpmin=0 / sar=1 / overscan=0 / videoformat=5 / range=0 / colorprim=2 / transfer=2 / colormatrix=2 / chromaloc=0 / display-window=0 / max-cll=0,0 / min-luma=0 / max-luma=1023 / log2-max-poc-lsb=8 / vui-timing-info / vui-hrd-info / slices=1 / opt-qp-pps / opt-ref-list-length-pps / no-multi-pass-opt-rps / scenecut-bias=0.05 / no-opt-cu-delta-qp / no-aq-motion / no-hdr / no-hdr-opt / refine-level=5 / no-limit-sao
Default : Yes
Forced : No

Audio
ID : 2
Format : E-AC-3
Format/Info : Enhanced AC-3
Commercial name : Dolby Digital Plus
Codec ID : A_EAC3
Duration : 2 h 5 min
Bit rate mode : Constant
Bit rate : 640 kb/s
Channel(s) : 6 channels
Channel layout : L R C LFE Ls Rs
Sampling rate : 48.0 kHz
Frame rate : 31.250 FPS (1536 SPF)
Compression mode : Lossy
Stream size : 575 MiB (14%)
Title : Dub
Language : Russian
Service kind : Complete Main
Default : Yes
Forced : Yes

Text
ID : 3
Format : UTF-8
Codec ID : S_TEXT/UTF8
Codec ID/Info : UTF-8 Plain Text
Duration : 2 h 3 min
Bit rate : 53 b/s
Count of elements : 1122
Stream size : 48.8 KiB (0%)
Title : Full
Language : Russian
Default : No
Forced : No


скриншот   скриншот   скриншот   скриншот  


pb.wtf



Скачать Бессмертная гвардия через торрент https://funkyimg.com/i/39wD4.jpg Скачать фильм Бессмертная гвардия через торрент бесплантно в хорошем качестве Описание: Скрытая группа бессмертных наёмников-убийц под командованием молодой и беспринципной Андромахи Энди много веков защищала людей от ... 10 10 3
Торрент: Зарегистрирован [2020-12-21 17:32] · скачан: 109 раз
Статус: √ проверено
Размер: 4.05 GB
Как cкачать? Как скачать Бессмертная гвардия через торрент | UTorrent

% Раздел Тема Автор DL S | L
Фильмы (WEB-DL 720p, 1080p) [ 6.74 GB ] Бессмертная гвардия / The Old Guard [2020 WEB-DL-HEVC 1080p] DUB [Пифагор / Netflix] bober100 Скачать
11 | 0
Фильмы 2019-2020 [DVDrip, WEB-DLRip, HDrip] (DUB, MVO) [ 1.56 GB ] Бессмертная гвардия / The Old Guard [2020 WEB-DLRip-AVC] killermax2013 Скачать
5 | 0
Фильмы 2019-2020 [DVDrip, WEB-DLRip, HDrip] (DUB, MVO) [ 744 MB ] Бессмертная гвардия / The Old Guard [2020 WEB-DLRip-AVC] [Netflix] Lithuania Скачать
2 | 0
Фильмы 2019-2020 [DVDrip, WEB-DLRip, HDrip] (DUB, MVO) [ 1.46 GB ] Бессмертная гвардия / The Old Guard [2020 WEB-DLRip] - [Пифагор / Netflix] Twi7ter Скачать
98 | 6
Фильмы 2019-2020 [DVDrip, WEB-DLRip, HDrip] (DUB, MVO) [ 748 MB ] Бессмертная гвардия / The Old Guard [2020 WEB-DLRip] DUB [Пифагор / Netflix] bober100 Скачать
1 | 0
Ultra HD (UHD: 2K, 4K, 8K) — видео сверхвысокой чёткости [ 29.44 GB ] Бессмертная гвардия / The Old Guard [2020 UHD WEB-DLRip 2160p ] DUB [Пифагор / Netflix] bober100 Скачать
11 | 0
Фильмы 2019-2020 [DVDrip, WEB-DLRip, HDrip] (DUB, MVO) [ 2.18 GB ] Бессмертная гвардия / The Old Guard [2020 WEB-DLRip] - [Пифагор / Netflix] Twi7ter Скачать
120 | 1

28-11-2019 20:33  

Отключить всю рекламу на сайте

22-12-2020 08:51 Бессмертная гвардия Скачать торрент  

битый файлpb.wtf



    Дорогой пользователь! Огромная просьба, поблагодарите релизера, оцените раздачу и оставьте свои комментарий, если Вы скачали Бессмертная гвардия через торрент бесплатно! Внесите свою лепту в развитие PiratBit!
    Комментировать посты могут только пользователи прошедшие не сложную регистрацию
    Показать сообщения:    

    Бессмертная гвардия через торрент
    Скачать бесплатно Бессмертная гвардия
    Бессмертная гвардия скачать торрент
    Бессмертная гвардия смотреть онлайн
    Cкачать фильм Бессмертная гвардия бесплатно
    Бессмертная гвардия скачать торрент в хорошем качестве
    Бессмертная гвардия смотреть онлайн бесплатно в хорошем качестве


    Вы не можете начинать темы
    Вы не можете отвечать на сообщения
    Вы не можете редактировать свои сообщения
    Вы не можете удалять свои сообщения
    Вы не можете голосовать в опросах
    Вы не можете прикреплять файлы к сообщениям
    Вы можете скачивать файлы