2 сезон

iTunes

MVO

1

2 сезон

iTunes

iTunes

1 сезон

RePack

30

Ultimate

ВАЖНО

ИГРА 18+

pack

RePack

MK11
pack

Легкие деньги

RePack

jed

RePack

fifa19

RePack

RDR2

RePack

NEED FOR SPEED™ PAYBACK

4 сезон

9 сезон

Бесстыжие 9 сезон

Все сериалы

все сериалы на PB.wtf

RePack

FAR CRY 5

Anonymous, доброй ночи, мы не успеваем собрать деньги на оплату серверов за декабрь и январь, помогите нам пожалуйста в это трудное время. В качестве благодарности мы отключим Вам всю рекламу на сайте (укажите свой ник в строку Ваше имя)!

×
  
Magnet ссылка

30 миль из ниоткуда / 30 Miles from Nowhere (Кэйтлин Коллер) [2018, Ужасы, триллер, комедия, HDRip-AVC] [MVO] [HDRezka Studio] от MediaBit pb.wtf

30 миль из ниоткуда через торрент pb.wtf

Размер: 1.45 GB | Добавлен: 27 д. назад | Торрент скачан:12 раз
Скачать  

21-12-2020 17:51 30 миль из ниоткуда Скачать торрент  


30 миль из ниоткуда / 30 Miles from Nowhere
Информация о фильме:
Название: 30 миль из ниоткуда
Оригинальное название: 30 Miles from Nowhere
Год выхода: 2018
Жанр: Ужасы, триллер, комедия

Режиссер: Кэйтлин Коллер
В ролях: Кэрри Престон, Роберт Патрик Бенедикт, Мариэль Эйснер, Кэти Шим, Расти Швиммер, Биргунди Бэйкер, Эндрю Ротенберг, Шона Кофоуд, Уильям Смайли, Роберт Брюлер

Описание: Пятеро друзей со времён колледжа приезжают в один из городков Висконсина на похороны своего друга. То, что вначале кажется грустной встречей одноклассников, очень быстро становится кровавой борьбой за выживание.



Страна: США
Студия: Film Camp Productions
Продолжительность: 01:24:18
Перевод: Профессиональный (многоголосый, закадровый) - HDRezka Studio



Информация о файле:
Кодек: AVC
Формат: MKV
Качество: HDRip-AVC
Видео: MPEG-4 AVC, 1024x430, 23.976 fps, 2016 kb/s
Аудио RU: AC3, 6 ch, 48 kHz, 448 kbps
Субтитры: English
Навигация по главам: Да

General
Unique ID : 153588005911473307852982440556084978359 (0x738BF955FD9A86C2BB0693956A11E2B7)
Complete name : D:uTorrentРипы_от_wolf1245_MediaBit30 Miles from Nowhere.2018.HDRip-AVC_wolf1245_MediaBit.mkv
Format : Matroska
Format version : Version 4
File size : 1.45 GiB
Duration : 1 h 24 min
Overall bit rate : 2 465 kb/s
Movie name : 30 Miles from Nowhere.2018.HDRip-AVC_wolf1245_MediaBit
Encoded date : UTC 2020-12-21 17:38:22
Writing application : mkvmerge v51.0.0 ('I Wish') 64-bit
Writing library : libebml v1.4.0 + libmatroska v1.6.2
Video
ID : 1
Format : AVC
Format/Info : Advanced Video Codec
Format profile : High@L4.1
Format settings : CABAC / 12 Ref Frames
Format settings, CABAC : Yes
Format settings, Reference frames : 12 frames
Codec ID : V_MPEG4/ISO/AVC
Duration : 1 h 24 min
Bit rate : 2 016 kb/s
Width : 1 024 pixels
Height : 430 pixels
Display aspect ratio : 2.40:1
Frame rate mode : Constant
Frame rate : 23.976 (24000/1001) FPS
Color space : YUV
Chroma subsampling : 4:2:0
Bit depth : 8 bits
Scan type : Progressive
Bits/(Pixel*Frame) : 0.191
Stream size : 1.19 GiB (82%)
Title : wolf1245_MediaBit
Writing library : x264 core 157 r2958 57baac4
Encoding settings : cabac=1 / ref=12 / deblock=1:-3:-3 / analyse=0x3:0x133 / me=umh / subme=11 / psy=1 / psy_rd=1.05:0.00 / mixed_ref=1 / me_range=48 / chroma_me=1 / trellis=2 / 8x8dct=1 / cqm=0 / deadzone=21,11 / fast_pskip=0 / chroma_qp_offset=-2 / threads=10 / lookahead_threads=2 / sliced_threads=0 / nr=0 / decimate=0 / interlaced=0 / bluray_compat=0 / constrained_intra=0 / bframes=12 / b_pyramid=2 / b_adapt=2 / b_bias=0 / direct=3 / weightb=1 / open_gop=0 / weightp=2 / keyint=240 / keyint_min=24 / scenecut=40 / intra_refresh=0 / rc_lookahead=60 / rc=2pass / mbtree=0 / bitrate=2016 / ratetol=1.0 / qcomp=0.60 / qpmin=0 / qpmax=69 / qpstep=4 / cplxblur=20.0 / qblur=0.5 / vbv_maxrate=50000 / vbv_bufsize=62500 / nal_hrd=none / filler=0 / ip_ratio=1.40 / pb_ratio=1.30 / aq=2:0.90
Language : English
Default : Yes
Forced : No
Audio
ID : 2
Format : AC-3
Format/Info : Audio Coding 3
Commercial name : Dolby Digital
Codec ID : A_AC3
Duration : 1 h 24 min
Bit rate mode : Constant
Bit rate : 448 kb/s
Channel(s) : 6 channels
Channel layout : L R C LFE Ls Rs
Sampling rate : 48.0 kHz
Frame rate : 31.250 FPS (1536 SPF)
Compression mode : Lossy
Stream size : 270 MiB (18%)
Title : MVO | HDRezka Studio
Language : Russian
Service kind : Complete Main
Default : Yes
Forced : No
Text #1
ID : 3
Format : UTF-8
Codec ID : S_TEXT/UTF8
Codec ID/Info : UTF-8 Plain Text
Duration : 1 h 17 min
Bit rate : 78 b/s
Count of elements : 1670
Stream size : 45.0 KiB (0%)
Language : English
Default : No
Forced : No
Text #2
ID : 4
Format : UTF-8
Codec ID : S_TEXT/UTF8
Codec ID/Info : UTF-8 Plain Text
Duration : 1 h 23 min
Bit rate : 83 b/s
Count of elements : 1874
Stream size : 50.9 KiB (0%)
Title : SDH
Language : English
Default : No
Forced : No
Menu
00:00:00.000 : :Kapitel 01
00:03:00.180 : :Kapitel 02
00:09:16.306 : :Kapitel 03
00:16:54.347 : :Kapitel 04
00:28:18.572 : :Kapitel 05
00:35:28.251 : :Kapitel 06
00:41:50.007 : :Kapitel 07
00:48:37.414 : :Kapitel 08
00:54:53.749 : :Kapitel 09
01:01:29.936 : :Kapitel 10
01:11:52.767 : :Kapitel 11
01:19:54.999 : :Kapitel 12
Релиз от: & &
pb.wtf



Скачать 30 миль из ниоткуда через торрент https://i114.fastpic.ru/big/2020/1221/ee/067bf2617dc84b68286eca95172568ee.jpg Скачать фильм 30 миль из ниоткуда через торрент бесплантно в хорошем качестве Описание: Пятеро друзей со времён колледжа приезжают в один из городков Висконсина на похороны своего друга. То, что вначале кажется ... 10 10 2
Торрент: Зарегистрирован [2020-12-21 17:51] · скачан: 12 раз
Статус: √ проверено
Размер: 1.45 GB
Как cкачать? Как скачать 30 миль из ниоткуда через торрент | UTorrent

28-11-2019 20:33  

Отключить всю рекламу на сайте

    Дорогой пользователь! Огромная просьба, поблагодарите релизера, оцените раздачу и оставьте свои комментарий, если Вы скачали 30 миль из ниоткуда через торрент бесплатно! Внесите свою лепту в развитие PiratBit!
    Комментировать посты могут только пользователи прошедшие не сложную регистрацию
    Показать сообщения:    

    30 миль из ниоткуда через торрент
    Скачать бесплатно 30 миль из ниоткуда
    30 миль из ниоткуда скачать торрент
    30 миль из ниоткуда смотреть онлайн
    Cкачать фильм 30 миль из ниоткуда бесплатно
    30 миль из ниоткуда скачать торрент в хорошем качестве
    30 миль из ниоткуда смотреть онлайн бесплатно в хорошем качестве


    Вы не можете начинать темы
    Вы не можете отвечать на сообщения
    Вы не можете редактировать свои сообщения
    Вы не можете удалять свои сообщения
    Вы не можете голосовать в опросах
    Вы не можете прикреплять файлы к сообщениям
    Вы можете скачивать файлы