1 сезон

1 сезон

iTunes

1

КиноПоиск HD

Кинопоиск HD

iTunes

13

1 сезон

RePack

30

Новинка

ВАЖНО

ИГРА 18+

pack

RePack

MK11
pack

Легкие деньги

RePack

jed

RePack

fifa19

RePack

RDR2

RePack

NEED FOR SPEED™ PAYBACK

4 сезон

9 сезон

Бесстыжие 9 сезон

Все сериалы

все сериалы на PB.wtf

RePack

FAR CRY 5
  
Magnet ссылка

Лжец, Лжец / Liar Liar (Том Шэдьяк) [1997, комедия, семейный, мелодрама, BDRip (HEVC)1080p] [DVO] + 2x[MVO] + 2x[AVO] + [Ukr MVO] pb.wtf

Лжец, Лжец через торрент pb.wtf

Раздают: 2 [ 0 KB/s ]
Размер: 2.74 GB | Добавлен: 11 д. назад | Торрент скачан:27 раз
Скачать  

21-12-2020 19:33 Лжец, Лжец Скачать торрент  

Лжец, Лжец / Liar Liar
Год выпуска: 1997
Страна: США
Жанр: комедия, семейный, мелодрама
Продолжительность: 01:26:29
Перевод 1: Профессиональный (двухголосый закадровый) - Премьер Видео
Перевод 2: Профессиональный (многоголосый закадровый) - НТВ
Перевод 3: Профессиональный (многоголосый закадровый) - СТС
Перевод 4: Авторский (одноголосый, закадровый) - А. Гаврилов
Перевод 5: Авторский (одноголосый закадровый) - Ю. Живов
Перевод 6: Украинский профессиональный (многоголосый закадровый)

Режиссер: Том Шэдьяк / Tom Shadyac

В ролях: Джим Керри, Мора Тирни, Джастин Купер, Кэри Элвис, Энн Хейни, Дженнифер Тилли, Аманда Донохью, Джейсон Бернард, Свузи Кёрц, Митч Райан

Описание: Флетчер Рид — блестящий адвокат и неисправимый лжец. Он по привычке врет жене Одри, сыну Максу и учит клиентов подстраивать правду под свои нужды, перекраивать истину ради своей выгоды. Жена бросает Флетчера из-за его вредной привычки лгать, а сын Макс в свой день рождения, задувая свечи на торте, загадывает только одно желание: «Хочу, чтоб мой любимый папочка перестал постоянно врать».
Желание сбывается, и неожиданно для Флетчера Рида язык, который всегда был его рабочим инструментом, превращается в его главного врага. Флетчер начинает говорить обидную правду своему начальнику и клиентам. Эта правдивость может стоить адвокату работы! Но самое страшное ждет правдивого поневоле Флетчера в зале суда, когда будет слушаться дело о разводе его клиента. Без вранья он не сможет выиграть! Да, этот день своей жизни Флетчер Рид не забудет никогда…



Качество видео: BDRip (HEVC) 1080p
Формат: MKV
Видео кодек: x.265
Аудио кодек: AC3, MP3
Видео: HEVC/H.265, 1920x1040, 23,976 fps, ~2971 Kbps, 10 bit
Аудио #1: 48 kHz, AC3, 2 ch, ~192.00 kbps avg - Премьер Видео
Аудио #2: 48 kHz, AC3, 2 ch, ~192.00 kbps avg - НТВ
Аудио #3: 48 kHz, AC3, 2 ch, ~192.00 kbps avg -СТС
Аудио #4: 48 kHz, AC3, 6 ch, ~448.00 kbps avg - А. Гаврилов
Аудио #5: 48 kHz, AC3, 6 ch, ~384.00 kbps avg - Ю. Живов
Аудио #6: 48 kHz, MP3, 2 ch, ~160.00 kbps avg - Украинский
General
Unique ID : 192891756772346248772167596722182081292 (0x911D99DDB6B2FE96909C2A3361BECB0C)
Complete name : G:\ФИЛЬМЫ\Liar Liar.1997.BDRip (HEVC)1080p.[DVO], 2X[MVO], 2X[AVO], Ukr[MVO].xz.mkv
Format : Matroska
Format version : Version 4
File size : 2.74 GiB
Duration : 1 h 26 min
Overall bit rate : 4 529 kb/s
Movie name : Liar Liar.1997.BDRip (HEVC)1080p.[DVO], 2X[MVO], 2X[AVO], Ukr[MVO].xz
Encoded date : UTC 2020-12-21 19:07:10
Writing application : mkvmerge v6.1.0 ('Old Devil') built on Mar 2 2013 14:32:37
Writing library : libebml v1.3.0 + libmatroska v1.4.0

Video
ID : 1
Format : HEVC
Format/Info : High Efficiency Video Coding
Format profile : Main 10@L4@Main
Codec ID : V_MPEGH/ISO/HEVC
Duration : 1 h 26 min
Bit rate : 2 971 kb/s
Width : 1 920 pixels
Height : 1 040 pixels
Display aspect ratio : 1.85:1
Frame rate mode : Constant
Frame rate : 23.976 (24000/1001) FPS
Color space : YUV
Chroma subsampling : 4:2:0
Bit depth : 10 bits
Bits/(Pixel*Frame) : 0.060
Stream size : 1.73 GiB (63%)
Title : Liar Liar.1997.BDRip (HEVC)1080p.[DVO], 2X[MVO], 2X[AVO], Ukr[MVO].xz
Writing library : x265 2.3+7-c15f8bce9f4b:[Windows][GCC 6.3.0][64 bit] 10bit
Encoding settings : cpuid=1173503 / frame-threads=3 / numa-pools=8 / wpp / no-pmode / no-pme / no-psnr / no-ssim / log-level=2 / input-csp=1 / input-res=1920x1040 / interlace=0 / total-frames=124432 / level-idc=0 / high-tier=1 / uhd-bd=0 / ref=3 / no-allow-non-conformance / no-repeat-headers / annexb / no-aud / no-hrd / info / hash=0 / no-temporal-layers / open-gop / min-keyint=23 / keyint=250 / bframes=4 / b-adapt=2 / b-pyramid / bframe-bias=0 / rc-lookahead=20 / lookahead-slices=6 / scenecut=40 / no-intra-refresh / ctu=64 / min-cu-size=8 / no-rect / no-amp / max-tu-size=32 / tu-inter-depth=1 / tu-intra-depth=1 / limit-tu=0 / rdoq-level=0 / dynamic-rd=0.00 / signhide / no-tskip / nr-intra=0 / nr-inter=0 / no-constrained-intra / strong-intra-smoothing / max-merge=2 / limit-refs=3 / no-limit-modes / me=1 / subme=2 / merange=57 / temporal-mvp / weightp / no-weightb / no-analyze-src-pics / deblock=0:0 / sao / no-sao-non-deblock / rd=3 / no-early-skip / rskip / no-fast-intra / no-tskip-fast / no-cu-lossless / no-b-intra / rdpenalty=0 / psy-rd=2.00 / psy-rdoq=0.00 / no-rd-refine / analysis-mode=0 / no-lossless / cbqpoffs=0 / crqpoffs=0 / rc=abr / bitrate=2965 / qcomp=0.60 / qpstep=4 / stats-write=0 / stats-read=2 / cplxblur=20.0 / qblur=0.5 / ipratio=1.40 / pbratio=1.30 / aq-mode=2 / aq-strength=1.00 / cutree / zone-count=0 / no-strict-cbr / qg-size=32 / no-rc-grain / qpmax=69 / qpmin=0 / sar=0 / overscan=0 / videoformat=5 / range=0 / colorprim=2 / transfer=2 / colormatrix=2 / chromaloc=0 / display-window=0 / max-cll=0,0 / min-luma=0 / max-luma=1023 / log2-max-poc-lsb=8 / vui-timing-info / vui-hrd-info / slices=1 / opt-qp-pps / opt-ref-list-length-pps / no-multi-pass-opt-rps / scenecut-bias=0.05 / no-opt-cu-delta-qp / no-aq-motion / no-hdr / no-hdr-opt / Capture-colorprim=3
Default : Yes
Forced : No
Duration_Source : General_Duration

Audio #1
ID : 2
Format : AC-3
Format/Info : Audio Coding 3
Commercial name : Dolby Digital
Codec ID : A_AC3
Duration : 1 h 26 min
Bit rate mode : Constant
Bit rate : 192 kb/s
Channel(s) : 2 channels
Channel layout : L R
Sampling rate : 48.0 kHz
Frame rate : 31.250 FPS (1536 SPF)
Compression mode : Lossy
Stream size : 119 MiB (4%)
Title : Premier
Language : Russian
Service kind : Complete Main
Default : Yes
Forced : No
Duration_Source : General_Duration

Audio #2
ID : 3
Format : AC-3
Format/Info : Audio Coding 3
Commercial name : Dolby Digital
Codec ID : A_AC3
Duration : 1 h 26 min
Bit rate mode : Constant
Bit rate : 192 kb/s
Channel(s) : 2 channels
Channel layout : L R
Sampling rate : 48.0 kHz
Frame rate : 31.250 FPS (1536 SPF)
Compression mode : Lossy
Stream size : 119 MiB (4%)
Title : HTB
Language : Russian
Service kind : Complete Main
Default : No
Forced : No
Duration_Source : General_Duration

Audio #3
ID : 4
Format : AC-3
Format/Info : Audio Coding 3
Commercial name : Dolby Digital
Codec ID : A_AC3
Duration : 1 h 26 min
Bit rate mode : Constant
Bit rate : 192 kb/s
Channel(s) : 2 channels
Channel layout : L R
Sampling rate : 48.0 kHz
Frame rate : 31.250 FPS (1536 SPF)
Compression mode : Lossy
Stream size : 119 MiB (4%)
Title : CTC
Language : Russian
Service kind : Complete Main
Default : No
Forced : No
Duration_Source : General_Duration

Audio #4
ID : 5
Format : AC-3
Format/Info : Audio Coding 3
Commercial name : Dolby Digital
Codec ID : A_AC3
Duration : 1 h 26 min
Bit rate mode : Constant
Bit rate : 448 kb/s
Channel(s) : 6 channels
Channel layout : L R C LFE Ls Rs
Sampling rate : 48.0 kHz
Frame rate : 31.250 FPS (1536 SPF)
Compression mode : Lossy
Stream size : 277 MiB (10%)
Title : Gavrilov
Language : Russian
Service kind : Complete Main
Default : No
Forced : No
Duration_Source : General_Duration

Audio #5
ID : 6
Format : AC-3
Format/Info : Audio Coding 3
Commercial name : Dolby Digital
Codec ID : A_AC3
Duration : 1 h 26 min
Bit rate mode : Constant
Bit rate : 384 kb/s
Channel(s) : 6 channels
Channel layout : L R C LFE Ls Rs
Sampling rate : 48.0 kHz
Frame rate : 31.250 FPS (1536 SPF)
Compression mode : Lossy
Stream size : 238 MiB (8%)
Title : Jyvov
Language : Russian
Service kind : Complete Main
Default : No
Forced : No
Duration_Source : General_Duration

Audio #6
ID : 7
Format : MPEG Audio
Format version : Version 1
Format profile : Layer 3
Codec ID : A_MPEG/L3
Codec ID/Hint : MP3
Duration : 1 h 26 min
Bit rate mode : Constant
Bit rate : 160 kb/s
Channel(s) : 2 channels
Sampling rate : 48.0 kHz
Frame rate : 41.667 FPS (1152 SPF)
Compression mode : Lossy
Stream size : 99.0 MiB (4%)
Title : UKR_MVO
Writing library : LAME3.98r
Encoding settings : -m s -V 4 -q 2 -lowpass 17.5 -b 160
Language : Ukrainian
Default : No
Forced : No

Menu
00:00:00.000 : en:Chapter 01
00:13:41.445 : en:Chapter 02
00:18:46.208 : en:Chapter 03
00:20:10.918 : en:Chapter 04
00:22:29.848 : en:Chapter 05
00:26:34.050 : en:Chapter 06
00:32:59.394 : en:Chapter 07
00:38:16.085 : en:Chapter 08
00:41:59.058 : en:Chapter 09
00:45:52.583 : en:Chapter 10
00:49:24.878 : en:Chapter 11
00:53:10.729 : en:Chapter 12
00:57:07.757 : en:Chapter 13
01:11:07.846 : en:Chapter 14
01:16:03.725 : en:Chapter 15
01:20:40.460 : en:Chapter 16
01:26:22.010 : en:Chapter 17
скриншот   скриншот   скриншот   скриншот   скриншот  
pb.wtf



Скачать Лжец, Лжец через торрент http://i46.fastpic.ru/big/2013/0527/30/63aabd7ca22a75abbe8c95b3a171d530.jpg Скачать фильм Лжец, Лжец через торрент бесплантно в хорошем качестве Описание: Флетчер Рид — блестящий адвокат и неисправимый лжец. Он по привычке врет жене Одри, сыну Максу и учит клиентов подстраивать ... 9.7 10 6
Торрент: Зарегистрирован [2021-04-07 20:10] · скачан: 27 раз
Статус: √ проверено
Размер: 2.74 GB
Как cкачать? Как скачать Лжец, Лжец через торрент | UTorrent

% Раздел Тема Автор DL S | L
Фильмы (Blu-ray, BD-Remux, HDDVD) [ 28.23 GB ] Хороший лжец / The Good Liar [2019 BD Remux 1080p] DUB [] bober100 Скачать
1 | 0
Фильмы [HD 720p, 1080p] (Хороший звук DUB, MVO) [ 10.82 GB ] Хороший лжец / The Good Liar [2019 BDRip 1080p] DUB [] bober100 Скачать
2 | 0
Фильмы [HD 720p, 1080p] (Хороший звук DUB, MVO) [ 5.84 GB ] Хороший лжец / The Good Liar [2019 BDRip 720p] DUB [] bober100 Скачать
1 | 0
Зарубежные сериалы [ 6.43 GB ] Лжец / Liar / Сезон: 1 / Серии 1-6 из 6 [2017 WEBRip 720p] [MVO] killermax2013 Скачать
1 | 0
Фильмы [HD 720p, 1080p] (Хороший звук DUB, MVO) [ 7.94 GB ] Лжец лжец / Liar Liar [1997 BDRip 1080p + Бумер Скачать
1 | 0

28-11-2019 20:33  

Отключить всю рекламу на сайте

    Дорогой пользователь! Огромная просьба, поблагодарите релизера, оцените раздачу и оставьте свои комментарий, если Вы скачали Лжец, Лжец через торрент бесплатно! Внесите свою лепту в развитие PiratBit!
    Комментировать посты могут только пользователи прошедшие не сложную регистрацию
    Показать сообщения:    

    Лжец, Лжец через торрент
    Скачать бесплатно Лжец, Лжец
    Лжец, Лжец скачать торрент
    Лжец, Лжец смотреть онлайн
    Cкачать фильм Лжец, Лжец бесплатно
    Лжец, Лжец скачать торрент в хорошем качестве
    Лжец, Лжец смотреть онлайн бесплатно в хорошем качестве


    Вы не можете начинать темы
    Вы не можете отвечать на сообщения
    Вы не можете редактировать свои сообщения
    Вы не можете удалять свои сообщения
    Вы не можете голосовать в опросах
    Вы не можете прикреплять файлы к сообщениям
    Вы можете скачивать файлы