2 сезон

iTunes

MVO

1

2 сезон

iTunes

iTunes

1 сезон

RePack

30

Новинка

ВАЖНО

ИГРА 18+

pack

RePack

MK11
pack

Легкие деньги

RePack

jed

RePack

fifa19

RePack

RDR2

RePack

NEED FOR SPEED™ PAYBACK

4 сезон

9 сезон

Бесстыжие 9 сезон

Все сериалы

все сериалы на PB.wtf

RePack

FAR CRY 5

Anonymous, доброе утро, мы не успеваем собрать деньги на оплату серверов за декабрь и январь, помогите нам пожалуйста в это трудное время. В качестве благодарности мы отключим Вам всю рекламу на сайте (укажите свой ник в строку Ваше имя)!

×
  
Magnet ссылка

Тихое безумство в 3Д / Silent Madness 3D (Саймон Начтерн / Simon Nuchtern) [1984, ужасы, триллер, BDRip, 1080p] OverUnder / Вертикальная стереопара (AVO) pb.wtf

Тихое безумство в 3Д через торрент pb.wtf

Размер: 23.13 GB | Добавлен: 1 мес. 5 д. назад | Торрент скачан:1 раз
Скачать  

22-12-2020 14:17 Тихое безумство в 3Д Скачать торрент  

Тихое безумство / Silent Madness

Год выпуска: 1984
Страна: США
Жанр: ужасы, триллер
Продолжительность: 01:32:41

Перевод: Авторский (одноголосый закадровый)(Сергей Кузнецов)
Русские субтитры: есть
Режиссер: Саймон Начтерн / Simon Nuchtern

В ролях: Белинда Монтгомери, Вивека Линдфорс, Солли Маркс, Сидни Лэссик, Дэвид Гринен, Родерик Кук, Станья Лоу, Эд Ван Нюйс, Дэннис Хелфенд, Филип Леви

Описание: Фильм начинается с того, что некий Ховард Джонс был выпущен из психиатрической лечебницы. Доктор Джоан Гилмор позднее выясняет, что это было сделано ошибочно и отправляется на поиски Джонса. Следы приводят ее в небольшой городок, в котором есть женское общежитие. В этом общежитии двадцать лет назад произошла резня, в ходе которой были убиты несколько юных девушек-студенток. Убийцей был, как нетрудно догадаться, тот самый Ховард Джонс. И теперь он вернулся чтобы отомстить за годы, проведенные в лечебнице.

Дополнительная информация по релизу: На три фразы в русской озвучке не было перевода, т.к. на DVD не было этого кусочка (~18 сек) - они переведены субтитрами.
В русской дороге наиболее продолжительные участки без речи заменены на участки оригинальной дороги с BD 3D.
Фильм отреставрирован 3-D Film Archive.
Сэмпл: http://sendfile.su/1588761

Качество: BDrip, 1080p
Контейнер: MKV
Формат 3D: OverUnder / Вертикальная стереопара
Порядок ракурсов: левый ракурс первый
Видео кодек: x264
Аудио кодек: AC3
Видео: AVC / High@L5.0 / 23,976 fps / 1920х2160 / 34,1 Мбит/сек
Аудио: Русский / AC3 / 48 KHz / 2.0 ch / 448 Кбит/сек(AVO - Сергей Кузнецов) (адаптация к BD - Ash61)
Аудио 2: Английский / AC3 / 48 KHz / 2.0 ch / 448 Кбит/сек
Субтитры (SRT):Русские Форсированные

ВНИМАНИЕ ! На встроенных ТВ-плеерах работать не будет!!!

ТВ Samsung в названии которого есть надпись Ultra HD , и LG Ultra HD 800 серии, LG C6P, Xiaomi Mi TV 2, GRUNDIG VLE 8474 BL, Samsung UE48H6200AK воспроизводят полные стереопары встроенными плеерами
Железные плееры на которых воспроизводятся полные стереопары:Popcorn C-200, Popcorn a-400, Dune HD Smart D1 , Dune HD DUO , Dune HD Smart H1 , Dune HD Smart B1 , Dune HD Max , Dune HD TV-303D, Dune HD TV-102, Dune HD Base 3D, Philips HMP7001, Aura HD, MECOOL BB2, Zidoo x9s, Lake I Cloud, MiBox 3
Чтобы изображение было на весь экран в плеере выставляем, если рип 1920х1600 - то выставляем 2.35:1 , если 1920х2160 - то выставляем 16:9
Общее
Уникальный идентификатор : 250515837333454043215749462584939864725 (0xBC779863608927928F17D7A493A56295)
Полное имя : F:\Iso\Silent Madness.Rip by SeRoGa00.mkv
Формат : Matroska
Версия формата : Version 2
Размер файла : 23,1 Гбайт
Продолжительность : 1 ч. 32 м.
Общий поток : 35,7 Мбит/сек
Дата кодирования : UTC 2020-12-22 13:23:56
Программа кодирования : mkvmerge v3.4.0 ('Rapunzel') сборка от May 15 2010 09:38:20
Библиотека кодирования : libebml v0.8.0 + libmatroska v0.9.0

Видео
Идентификатор : 1
Формат : AVC
Формат/Информация : Advanced Video Codec
Профиль формата : High@L5.0
Параметр CABAC формата : Да
Параметр ReFrames формата : 4 кадра
Идентификатор кодека : V_MPEG4/ISO/AVC
Продолжительность : 1 ч. 32 м.
Битрейт : 34,1 Мбит/сек
Ширина : 1920 пикселей
Высота : 2160 пикселей
Соотношение сторон : 0,889
Частота кадров : 23,976 кадра/сек
Цветовое пространство : YUV
Субдискретизация насыщенности : 4:2:0
Битовая глубина : 8 бит
Тип развёртки : Прогрессивная
Бит/(Пиксели*Кадры) : 0.343
Размер потока : 22,1 Гбайт (96%)
Заголовок : Rip by SeRoGa00
Библиотека кодирования : x264 core 157 r2969 d4099dd
Настройки программы : cabac=1 / ref=4 / deblock=1:-3:-3 / analyse=0x3:0x113 / me=umh / subme=10 / psy=1 / psy_rd=1.00:0.15 / mixed_ref=1 / me_range=24 / chroma_me=1 / trellis=2 / 8x8dct=1 / cqm=0 / deadzone=21,11 / fast_pskip=1 / chroma_qp_offset=-3 / threads=18 / lookahead_threads=6 / sliced_threads=0 / nr=0 / decimate=0 / interlaced=0 / bluray_compat=0 / constrained_intra=0 / bframes=10 / b_pyramid=2 / b_adapt=2 / b_bias=0 / direct=3 / weightb=1 / open_gop=0 / weightp=2 / keyint=250 / keyint_min=23 / scenecut=40 / intra_refresh=0 / rc_lookahead=60 / rc=crf / mbtree=1 / crf=16.5 / qcomp=0.60 / qpmin=10 / qpmax=69 / qpstep=4 / vbv_maxrate=40000 / vbv_bufsize=40000 / crf_max=0.0 / nal_hrd=none / filler=0 / ip_ratio=1.40 / aq=1:1.00
Язык : English
Default : Нет
Forced : Нет

Аудио #1
Идентификатор : 2
Формат : AC-3
Формат/Информация : Audio Coding 3
Расширение режима : CM (complete main)
Параметр Endianness формата : Big
Идентификатор кодека : A_AC3
Продолжительность : 1 ч. 32 м.
Вид битрейта : Постоянный
Битрейт : 448 Кбит/сек
Каналы : 2 канала
Расположение каналов : Front: L R
Частота : 48,0 КГц
Битовая глубина : 16 бит
Метод сжатия : С потерями
Размер потока : 297 Мбайт (1%)
Язык : Russian
Default : Да
Forced : Нет

Аудио #2
Идентификатор : 3
Формат : AC-3
Формат/Информация : Audio Coding 3
Расширение режима : CM (complete main)
Параметр Endianness формата : Big
Идентификатор кодека : A_AC3
Продолжительность : 1 ч. 32 м.
Вид битрейта : Постоянный
Битрейт : 448 Кбит/сек
Каналы : 2 канала
Расположение каналов : Front: L R
Частота : 48,0 КГц
Битовая глубина : 16 бит
Метод сжатия : С потерями
Размер потока : 297 Мбайт (1%)
Язык : English
Default : Нет
Forced : Нет

Текст
Идентификатор : 4
Формат : UTF-8
Идентификатор кодека : S_TEXT/UTF8
Идентификатор кодека/Информация : UTF-8 Plain Text
Язык : Russian
Default : Да
Forced : Нет

Меню
00:00:00.000 : :1
00:18:38.117 : :2
00:37:51.019 : :3
00:57:00.417 : :4
01:13:58.225 : :5
скриншот  

скриншот  

скриншот  

скриншот  

скриншот  

скриншот  

скриншот  

скриншот  
pb.wtf



Скачать Тихое безумство в 3Д через торрент https://d.radikal.ru/d32/2012/93/0c304d4f229e.png Скачать фильм Тихое безумство в 3Д через торрент бесплантно в хорошем качестве Описание: Фильм начинается с того, что некий Ховард Джонс был выпущен из психиатрической лечебницы. Доктор Джоан Гилмор позднее выясняет, ... 5 10 1
Торрент: Зарегистрирован [2020-12-22 14:17] · скачан: 1 раз
Статус: √ проверено
Размер: 23.13 GB
Как cкачать? Как скачать Тихое безумство в 3Д через торрент | UTorrent

28-11-2019 20:33  

Отключить всю рекламу на сайте

    Дорогой пользователь! Огромная просьба, поблагодарите релизера, оцените раздачу и оставьте свои комментарий, если Вы скачали Тихое безумство в 3Д через торрент бесплатно! Внесите свою лепту в развитие PiratBit!
    Комментировать посты могут только пользователи прошедшие не сложную регистрацию
    Показать сообщения:    

    Тихое безумство в 3Д через торрент
    Скачать бесплатно Тихое безумство в 3Д
    Тихое безумство в 3Д скачать торрент
    Тихое безумство в 3Д смотреть онлайн
    Cкачать фильм Тихое безумство в 3Д бесплатно
    Тихое безумство в 3Д скачать торрент в хорошем качестве
    Тихое безумство в 3Д смотреть онлайн бесплатно в хорошем качестве


    Вы не можете начинать темы
    Вы не можете отвечать на сообщения
    Вы не можете редактировать свои сообщения
    Вы не можете удалять свои сообщения
    Вы не можете голосовать в опросах
    Вы не можете прикреплять файлы к сообщениям
    Вы можете скачивать файлы