2 сезон

iTunes

MVO

1

2 сезон

iTunes

iTunes

1 сезон

RePack

30

Новинка

ВАЖНО

ИГРА 18+

pack

RePack

MK11
pack

Легкие деньги

RePack

jed

RePack

fifa19

RePack

RDR2

RePack

NEED FOR SPEED™ PAYBACK

4 сезон

9 сезон

Бесстыжие 9 сезон

Все сериалы

все сериалы на PB.wtf

RePack

FAR CRY 5

Anonymous, добрый день, мы не успеваем собрать деньги на оплату серверов за декабрь и январь, помогите нам пожалуйста в это трудное время. В качестве благодарности мы отключим Вам всю рекламу на сайте (укажите свой ник в строку Ваше имя)!

×
  
Magnet ссылка

Стальная звезда / Жестяная звезда / Tin Star / Сезон: 3 / Серии 1-6 из 6 (Жиль Банньер, Марк Йобст, Грант Харви) [2020, Драма, триллер, HDTV (1080i)] [MVO] (Novamedia по заказу Amedia) pb.wtf

Стальная звезда через торрент pb.wtf

Раздают: 8 [ 15 KB/s ]
Размер: 12.76 GB | Добавлен: 1 д. 3 ч. назад | Торрент скачан:10 раз
Скачать  

22-12-2020 17:35 Стальная звезда Скачать торрент  

Стальная звезда / Жестяная звезда / Tin Star
• Год выпуска: 2020
• Страна: Великобритания, Kudos Film and Television
• Жанр: Драма, триллер
• Продолжительность: ~ 00:45:00
• Перевод: Профессиональный (многоголосый) - Novamedia по заказу Amedia
• Субтитры: русские (форсированные вшитые)

• Режиссёр: Жиль Банньер, Марк Йобст, Грант Харви

• В ролях: Тим Рот, Кристина Хендрикс, Кристофер Хейердал, Оливер Куперсмит, Линда Бойд, Tobi Bamtefa, Майк Ковач, Майлс Питерман, Сара Подемски, Райан Кеннеди

• Описание: История о том, как бывший полицейский детектив Джим Уорт из Лондона вместе с семьёй перебрался в городок у скалистых гор, чтобы возглавить местную полицию. После открытия неподалёку нефтеочистительного завода городок наводнили мигранты, спровоцировав рост преступности, проституции и наркоторговли. Попытки Джима восстановить порядок превратили его жизнь и жизнь его близких в ад, от которого некуда скрыться.

rating

• Качество: HDTV (1080i)
• Формат: MKV
• Видео: MPEG-4 AVC, ~ 6000 Кбит/с, 1920x1080, 25 кадр/с
• Аудио: AC3, 48,0 КГц, 6 ch, 384 kbps - Rus
• Аудио: MP2, 48,0 КГц, 2 ch, 128 kbps - Eng
• Аудио: MP2, 48,0 КГц, 2 ch, 192 kbps - Rus
General
Unique ID : 174307001096954995622419929829024058501 (0x83224EAABF4C80098F4130AE9869CC85)
Complete name : I:\Файлы новые\3D Film\Tin Star.S03.HDTV.1080i.Novamedia\Tin Star.S03E01.HDTV.1080i.Novamedia.mkv
Format : Matroska
Format version : Version 4 / Version 2
File size : 2.32 GiB
Duration : 50 min 21 s
Overall bit rate : 6 592 kb/s
Movie name : Tin Star.S03E01.HDTV.1080i.Novamedia
Encoded date : UTC 2020-12-14 20:03:58
Writing application : mkvmerge v8.0.0 ('Til The Day That I Die') 64bit
Writing library : libebml v1.3.1 + libmatroska v1.4.2

Video
ID : 1
Format : AVC
Format/Info : Advanced Video Codec
Format profile : High@L4
Format settings, CABAC : Yes
Format settings, RefFrames : 4 frames
Codec ID : V_MPEG4/ISO/AVC
Duration : 50 min 21 s
Bit rate : 5 885 kb/s
Width : 1 920 pixels
Height : 1 080 pixels
Display aspect ratio : 16:9
Frame rate mode : Constant
Frame rate : 25.000 FPS
Standard : Component
Color space : YUV
Chroma subsampling : 4:2:0
Bit depth : 8 bits
Scan type : Interlaced
Scan type, store method : Separated fields
Scan order : Top Field First
Bits/(Pixel*Frame) : 0.114
Stream size : 2.07 GiB (89%)
Title : Tin Star.S03E01
Language : English
Default : No
Forced : No
Color range : Limited
Color primaries : BT.709
Transfer characteristics : BT.709
Matrix coefficients : BT.709

Audio #1
ID : 2
Format : AC-3
Format/Info : Audio Coding 3
Format settings, Endianness : Big
Codec ID : A_AC3
Duration : 50 min 20 s
Bit rate mode : Constant
Bit rate : 384 kb/s
Channel(s) : 6 channels
Channel positions : Front: L C R, Side: L R, LFE
Sampling rate : 48.0 kHz
Frame rate : 31.250 FPS (1536 SPF)
Bit depth : 16 bits
Compression mode : Lossy
Stream size : 138 MiB (6%)
Title : MVO [Novamedia]
Language : Russian
Service kind : Complete Main
Default : Yes
Forced : No

Audio #2
ID : 3
Format : MPEG Audio
Format version : Version 1
Format profile : Layer 2
Codec ID : A_MPEG/L2
Codec ID/Hint : MP2
Duration : 50 min 21 s
Bit rate mode : Constant
Bit rate : 128 kb/s
Channel(s) : 2 channels
Sampling rate : 48.0 kHz
Frame rate : 41.667 FPS (1152 SPF)
Compression mode : Lossy
Stream size : 46.1 MiB (2%)
Title : Original [English]
Language : English
Default : No
Forced : No

Audio #3
ID : 4
Format : MPEG Audio
Format version : Version 1
Format profile : Layer 2
Codec ID : A_MPEG/L2
Codec ID/Hint : MP2
Duration : 50 min 21 s
Bit rate mode : Constant
Bit rate : 192 kb/s
Channel(s) : 2 channels
Sampling rate : 48.0 kHz
Frame rate : 41.667 FPS (1152 SPF)
Compression mode : Lossy
Stream size : 69.1 MiB (3%)
Title : MVO [Novamedia]
Language : Russian
Default : No
Forced : No
скриншот  скриншот  скриншот  
При каждом добавлении создаётся новый торрент. Чтобы начать докачку новой серии, пользователям необходимо сделать следующее:
- остановить скачивание;
- удалить старый торрент у себя из клиента (старые серии удалять не надо);
- скачать новый торрент и запустить его у себя в клиенте вместо старого, при этом указать клиенту путь в старую папку, куда и должно происходить скачивание новых серий.
pb.wtf



Скачать Стальная звезда через торрент https://i114.fastpic.ru/big/2020/1210/2c/cdfa82b97aba7698b33f0450d1d2002c.jpeg Скачать фильм Стальная звезда через торрент бесплантно в хорошем качестве Описание: История о том, как бывший полицейский детектив Джим Уорт из Лондона вместе с семьёй перебрался в городок у скалистых гор, чтобы ... 8.5 10 6
Info! Золотая раздача, скачанное не засчитывается.
Торрент: Зарегистрирован [2021-01-19 09:58] · скачан: 10 раз
Статус: √ проверено
Размер: 12.76 GB
Как cкачать? Как скачать Стальная звезда через торрент | UTorrent

% Раздел Тема Автор DL S | L
Зарубежные сериалы [ 3.48 GB ] Стальная звезда / Жестяная звезда / Tin Star / Сезон: 3 / Серии 1-6 из 6 [2020 WEB-DLRip] [MVO] killermax2013 Скачать
4 | 0
T Зарубежные сериалы [ 6.42 GB ] Стальная звезда / Жестяная звезда / Tin Star / Сезон: 3 / Серии 1-6 из 6 [2020 WEBRip 720p] [MVO] killermax2013 Скачать
4 | 1


Последний раз редактировалось: killermax2013 (2021-01-19 09:58), всего редактировалось 1 раз

28-11-2019 20:33  

Отключить всю рекламу на сайте

19-01-2021 09:09 Стальная звезда Скачать торрент  

Когда заключительноя серия?pb.wtf
Kkillermax2013 писал(а):

Уже добавил



    Дорогой пользователь! Огромная просьба, поблагодарите релизера, оцените раздачу и оставьте свои комментарий, если Вы скачали Стальная звезда через торрент бесплатно! Внесите свою лепту в развитие PiratBit!
    Комментировать посты могут только пользователи прошедшие не сложную регистрацию
    Показать сообщения:    

    Стальная звезда через торрент
    Скачать бесплатно Стальная звезда
    Стальная звезда скачать торрент
    Стальная звезда смотреть онлайн
    Cкачать фильм Стальная звезда бесплатно
    Стальная звезда скачать торрент в хорошем качестве
    Стальная звезда смотреть онлайн бесплатно в хорошем качестве


    Вы не можете начинать темы
    Вы не можете отвечать на сообщения
    Вы не можете редактировать свои сообщения
    Вы не можете удалять свои сообщения
    Вы не можете голосовать в опросах
    Вы не можете прикреплять файлы к сообщениям
    Вы можете скачивать файлы