2 сезон

iTunes

MVO

1

2 сезон

iTunes

iTunes

1 сезон

RePack

30

Новинка

ВАЖНО

ИГРА 18+

pack

RePack

MK11
pack

Легкие деньги

RePack

jed

RePack

fifa19

RePack

RDR2

RePack

NEED FOR SPEED™ PAYBACK

4 сезон

9 сезон

Бесстыжие 9 сезон

Все сериалы

все сериалы на PB.wtf

RePack

FAR CRY 5

Anonymous, добрый день, мы не успеваем собрать деньги на оплату серверов за декабрь и январь, помогите нам пожалуйста в это трудное время. В качестве благодарности мы отключим Вам всю рекламу на сайте (укажите свой ник в строку Ваше имя)!

×
  
Magnet ссылка

Пенниуорт / Pennyworth / Сезон: 2 / Серии: 1-4 из 10 (Дэнни Кэннон, Джон Ист, Роб Бэйли) [2020, Боевик, драма, криминал, WEB-DLRip] MVO [TVShows] pb.wtf

Пенниуорт через торрент pb.wtf

Раздают: 1 [ 0 KB/s ]
Размер: 2.78 GB | Добавлен: 7 д. назад | Торрент скачан:3 раза
Скачать  

24-12-2020 15:01 Пенниуорт Скачать торрент  

Пенниуорт | Pennyworth
«At your service»
Год выпуска: 2020
Страна: США
Студия: Warner Horizon Television
Жанр: Боевик, драма, криминал
Продолжительность: ~ 0:55:00
Перевод: Профессиональный (многоголосый закадровый) | TVShows
Субтитры: отсутствуют

Режиссер: Дэнни Кэннон, Джон Ист, Роб Бэйли

rating


В ролях
: Джек Бэннон, Палома Фэйт, Бен Элдридж, Джейсон Флеминг, Хэйнсли Ллойд Беннетт, Дороти Эткинсон, Эмма Коррин, Райан Флетчер, Иан Палстон-Дэвис, Ники Виккери и другие.

Описание: После демобилизации из армии Альфред Пенниуорт (Джек Бэннон) пытается устроиться среди гражданских, и, что часто случается с военными, начинает как вышибала в ночном клубе. Эта приземленная работа вызывает большое неудовольствие его отца, профессионального дворецкого. Продолжая мечтать о чем-то большем, Альфред встречает Томаса Уэйна (Бен Элдридж) — прямолинейного финансового аналитика, расследующего экономические преступления и заговоры. Пенниуорт освобождает сестру нового знакомого от подозрительных личностей, чем демонстрирует, что бывших солдат не бывает, как бы ему ни хотелось забыть о своем военном прошлом. Тем более что еще не время терять хватку: безопасности королевства угрожают тайные организации, которые собираются изменить будущее британского государства и всего мира.

Качество: WEB-DLRip
Формат: AVI

Видео: XviD, ~ 1600 Кбит/с, 704x352
Аудио : Русский (AC3, 2 ch, 192 Кбит/с)
скриншот  скриншот  скриншот  скриншот  скриншот  

Общее
Полное имя : C:\Pennyworth .S02. WEBDLRip.TVShows\01. Pennyworth .S02. WEBDLRip.TVShows.avi
Формат : AVI
Формат/Информация : Audio Video Interleave
Размер файла : 721 Мбайт
Продолжительность : 55 м. 59 с.
Общий поток : 1801 Кбит/сек
Программа кодирования : VirtualDubMod 1.5.10.3 | www.virtualdub-fr.org || (build 2550/release)
Библиотека кодирования : VirtualDubMod build 2550/release

Видео
Идентификатор : 0
Формат : MPEG-4 Visual
Профиль формата : Advanced Simple@L5
Параметр BVOP формата : 2
Параметр QPel формата : Нет
Параметр GMC формата : Без точки перехода
Параметр матрицы формата : Выборочная
Идентификатор кодека : XVID
Идентификатор кодека/Подсказка : XviD
Продолжительность : 55 м. 59 с.
Битрейт : 1529 Кбит/сек
Ширина : 704 пикселя
Высота : 352 пикселя
Соотношение сторон : 2,000
Частота кадров : 23,976 (23976/1000) кадра/сек
Цветовое пространство : YUV
Субдискретизация насыщенности : 4:2:0
Битовая глубина : 8 бит
Тип развёртки : Прогрессивная
Метод сжатия : С потерями
Бит/(Пиксели*Кадры) : 0.257
Размер потока : 612 Мбайт (85%)
Библиотека кодирования : XviD 73

Аудио
Идентификатор : 1
Формат : AC-3
Формат/Информация : Audio Coding 3
Расширение режима : CM (complete main)
Параметр Endianness формата : Big
Идентификатор кодека : 2000
Продолжительность : 55 м. 59 с.
Вид битрейта : Постоянный
Битрейт : 192 Кбит/сек
Каналы : 2 канала
Расположение каналов : Front: L R
Частота : 48,0 КГц
Частота кадров : 31,250 кадров/сек (1536 spf)
Метод сжатия : С потерями
Размер потока : 76,9 Мбайт (11%)
Выравнивание : Разделение по промежуткам

Когда раздача ведётся путём добавления новых серий, при каждом добавлении создётся новый торрент. Чтобы начать докачку новой серии, пользователям необходимо сделать следующее:
(1) остановить скачивание,
(2) удалить старый торрент у себя из клиента (старые серии удалять не надо),
(3) скачать новый торрент и запустить его у себя в клиенте вместо старого, при этом указать клиенту путь в старую папку, куда и должно происходить скачивание новых серий.
Ваш клиент при этом должен произвести хеширование (проверку) старой папки (если не производит сам - помогите ему сделать это), и будет докачивать только те серии, которых у вас ещё нет. Старые серии при этом не удаляются, а продолжают раздаваться!
Eсли вы уже удалили старые серии, то предотвратить повторную закачку старых серий можно, отжав галочку в соответсвующих местах при запуске нового торрента. По возможности, желательно не удалять старые серии как можно дольше, чтобы релизёр не столько продолжал раздавать старые серии, а смог сконцентрироваться на новых.

pb.wtf



Скачать Пенниуорт через торрент https://i5.imageban.ru/out/2020/12/15/b78212c0b98dc3ea0c6aa7f5f6f0e273.png Скачать фильм Пенниуорт через торрент бесплантно в хорошем качестве Описание: После демобилизации из армии Альфред Пенниуорт (Джек Бэннон) пытается устроиться среди гражданских, и, что часто случается с ... 10 10 3
Торрент: Зарегистрирован [2021-01-12 14:59] · скачан: 3 раз
Статус: √ проверено
Размер: 2.78 GB
Как cкачать? Как скачать Пенниуорт через торрент | UTorrent

% Раздел Тема Автор DL S | L
Зарубежные сериалы [ 7.06 GB ] Пенниуорт / Pennyworth / Сезон: 2 / Серии: 1-4 из 10 [2020 WEB-DL 720p] [MVO] killermax2013 Скачать
2 | 0
Зарубежные сериалы [ 2.96 GB ] Пенниуорт / Pennyworth / Сезон: 2 / Серии: 1-4 из 10 [2020 WEB-DL 720p] + 2x[MVO] killermax2013 Скачать
3 | 0
Зарубежные сериалы [ 21.89 GB ] Пенниуорт / Pennyworth / Сезон: 2 / Серии: 1-4 из 10 [2020 WEB-DL 1080p] DUB [Lucky Production] +3xMVO [Lostfilm HDRezka Studio TVShows] bober100 Скачать
1 | 0
Зарубежные сериалы [ 2.84 GB ] Пенниуорт / Pennyworth / Сезон: 2 / Серии: 1-4 из 10 [2020 WEB-DLRip] killermax2013 Скачать
1 | 0
Зарубежные сериалы [ 15.45 GB ] Пенниуорт / Pennyworth / Сезон: 2 / Серии: 1-4 из 10 [2020 WEB-DL 1080p] MVO [HDRezka Studio] bober100 Скачать
1 | 0
T Зарубежные сериалы [ 2.4 GB ] Пенниуорт / Pennyworth / Сезон: 2 / Серии: 1-4 из 10 [2020 WEBRip] [MVO] killermax2013 Скачать
2 | 0

28-11-2019 20:33  

Отключить всю рекламу на сайте

    Дорогой пользователь! Огромная просьба, поблагодарите релизера, оцените раздачу и оставьте свои комментарий, если Вы скачали Пенниуорт через торрент бесплатно! Внесите свою лепту в развитие PiratBit!
    Комментировать посты могут только пользователи прошедшие не сложную регистрацию
    Показать сообщения:    

    Пенниуорт через торрент
    Скачать бесплатно Пенниуорт
    Пенниуорт скачать торрент
    Пенниуорт смотреть онлайн
    Cкачать фильм Пенниуорт бесплатно
    Пенниуорт скачать торрент в хорошем качестве
    Пенниуорт смотреть онлайн бесплатно в хорошем качестве


    Вы не можете начинать темы
    Вы не можете отвечать на сообщения
    Вы не можете редактировать свои сообщения
    Вы не можете удалять свои сообщения
    Вы не можете голосовать в опросах
    Вы не можете прикреплять файлы к сообщениям
    Вы можете скачивать файлы