Anonymous, добрый вечер, присоединяйтесь к нам в Telegram!, здесь всегда актуальный адрес сайта, оперативная поддержка и многое другое!

>

5.5

iTunes

7.4

iTunes

7.9

iTunes

1

7.7

1 сезон

6.8

iTunes

7.3

1 сезон

13

6.7

1 сезон

8.3

RePack

30

ULTIMATE

pack

9.9

Лицензия

ВАЖНО

ИГРА 18+

pack

7.3

RePack

MK11

7.7

RePack

jed

7.8

RePack

fifa19

8.5

RePack

RDR2

RePack

NEED FOR SPEED™ PAYBACK

4 сезон

9 сезон

Бесстыжие 9 сезон

Все сериалы

все сериалы на PB.wtf

RePack

FAR CRY 5

Anonymous, добрый вечер, мы катастрофически не успеваем собрать деньги на оплату серверов, помогите нам пожалуйста 5,10,15р., для нас важна любая помощь . В качестве благодарности мы отключим Вам всю рекламу на сайте (укажите свой ник в строку Ваше имя)!

×
  
Magnet ссылка

Убить Билла: Дилогия / Kill Bill: Dilogy (Квентин Тарантино) [2003 - 2004 г., боевик, триллер, криминал, WEBRip - HEVC 1080p 10 bit 60 FPS, DUB, AVO] pb.wtf

Убить Билла: Дилогия через торрент pb.wtf

Раздают: 1 [ 0 KB/s ]
Размер: 10.7 GB | Добавлен: 10 мес. назад | Торрент скачан:18 раз
Смотреть онлайн Убить Билла: Дилогия | Скачать    Ребята, помогите собрать деньги на оплату серверов!!!

25-12-2020 13:58 Убить Билла: Дилогия Скачать торрент  



«Уби́ть Би́лла» (англ. Kill Bill) — фильм режиссёра Квентина Тарантино, снятый по его же сценарию. Фильм рассказывает историю женщины по имени Беатрикс Киддо, в прошлом бывшей наёмным убийцей. Релиз первой части состоялся осенью 2003 года, второй — весной 2004 года. Главные роли в картине исполнили Ума Турман и Дэвид Керрадайн.

Убить Билла - Kill Bill: Vol. 1 «И пришла невеста»

Год выпуска: 2003
Страна: США, Япония
Жанр: боевик, триллер, криминал

Продолжительность: 01:50:44
Перевод: Дубляж
Перевод: Одноголосый закадровый (М. Яроцкий)
Субтитры: русские

Режиссер: Квентин Тарантино

В ролях: Ума Турман, Люси Лью, Вивика Фокс, Дэрил Ханна, Дэвид Кэррадайн, Майкл Мэдсен, Джули Дрейфус, Чиаки Курийама, Сонни Чиба.

Описание:
В беременную наемную убийцу по кличке Черная Мамба во время бракосочетания стреляет человек по имени Билл. Пуля в голове жертвы, кровь на подвенечном платье, темнота... Но голова у Черной Мамбы оказалась крепкой.
Пролежав четыре года в коме, Невеста приходит в себя. Она горит желанием найти тех, кто ее предал. Теперь только безжалостная месть успокоит сердце Черной Мамбы, и она начинает убивать поочередно всех членов банды Билла, оставляя главаря напоследок.

Мировая премьера: 29 сентября 2003


Качество: WEBRip 1080p by DD2D3
Формат: MKV
Видео кодек: V_MPEGH/ISO/HEVC
Аудио кодек: AC3
Видео: V_MPEGH/ISO/HEVC; 1920x1080 (16:9); 5005 Kbps; 59,940 fps; 0,040 bpp
Аудио: русский; AC3; 640 Kbps; CBR; 6 ch
Аудио: русский; AC3; 640 Kbps; CBR; 6 ch
Навигация по главам: нет



General
Unique ID : 201667426786817585356617620105615926567 (0x97B7BBCD9408A1C590D02100DD106527)
Complete name : D:\Kill Bill Dilogy (2003-2004) BDRip - HEVC 1080p 10 bit 60 FPS\Kill Bill Vol. 1 (2003) WEBRip - HEVC 1080p 10 bit 60 FPS.mkv
Format : Matroska
Format version : Version 4
File size : 4.87 GiB
Duration : 1 h 50 min
Overall bit rate : 6 292 kb/s
Movie name : Rip by from DD2D3
Encoded date : UTC 2020-12-25 10:50:29
Writing application : mkvmerge v10.0.0 ('To Drown In You') 32bit
Writing library : libebml v1.3.4 + libmatroska v1.4.5
Attachments : poster

Video
ID : 1
Format : HEVC
Format/Info : High Efficiency Video Coding
Format profile : Main 10@L4.1@Main
Codec ID : V_MPEGH/ISO/HEVC
Duration : 1 h 50 min
Bit rate : 5 006 kb/s
Width : 1 920 pixels
Height : 1 080 pixels
Display aspect ratio : 16:9
Frame rate mode : Constant
Frame rate : 59.940 (60000/1001) FPS
Color space : YUV
Chroma subsampling : 4:2:0
Bit depth : 10 bits
Bits/(Pixel*Frame) : 0.040
Stream size : 3.87 GiB (80%)
Writing library : x265 2.3+33-0b7d54dbb71a87a0:[Windows][MSVC 1800][64 bit] 10bit: KG7x [x265.ru]
Encoding settings : cpuid=1173503 / frame-threads=2 / numa-pools=4 / wpp / no-pmode / no-pme / no-psnr / no-ssim / log-level=2 / input-csp=1 / input-res=1920x1080 / interlace=0 / total-frames=398301 / level-idc=41 / high-tier=1 / uhd-bd=0 / ref=3 / no-allow-non-conformance / no-repeat-headers / annexb / no-aud / no-hrd / info / hash=0 / no-temporal-layers / open-gop / min-keyint=25 / keyint=250 / bframes=4 / b-adapt=2 / b-pyramid / bframe-bias=0 / rc-lookahead=20 / lookahead-slices=6 / scenecut=40 / no-intra-refresh / ctu=64 / min-cu-size=8 / no-rect / no-amp / max-tu-size=32 / tu-inter-depth=1 / tu-intra-depth=1 / limit-tu=0 / rdoq-level=0 / dynamic-rd=0.00 / no-ssim-rd / signhide / no-tskip / nr-intra=0 / nr-inter=0 / no-constrained-intra / strong-intra-smoothing / max-merge=2 / limit-refs=3 / no-limit-modes / me=1 / subme=2 / merange=57 / temporal-mvp / weightp / no-weightb / no-analyze-src-pics / deblock=0:0 / sao / no-sao-non-deblock / rd=3 / no-early-skip / rskip / no-fast-intra / no-tskip-fast / no-cu-lossless / no-b-intra / rdpenalty=0 / psy-rd=2.00 / psy-rdoq=0.00 / no-rd-refine / analysis-mode=0 / no-lossless / cbqpoffs=0 / crqpoffs=0 / rc=abr / bitrate=5000 / qcomp=0.60 / qpstep=4 / stats-write=0 / stats-read=2 / cplxblur=20.0 / qblur=0.5 / ipratio=1.40 / pbratio=1.30 / aq-mode=1 / aq-strength=1.00 / cutree / zone-count=0 / no-strict-cbr / qg-size=32 / no-rc-grain / qpmax=69 / qpmin=0 / sar=1 / overscan=0 / videoformat=5 / range=0 / colorprim=2 / transfer=2 / colormatrix=2 / chromaloc=0 / display-window=0 / max-cll=0,0 / min-luma=0 / max-luma=1023 / log2-max-poc-lsb=8 / vui-timing-info / vui-hrd-info / slices=1 / opt-qp-pps / opt-ref-list-length-pps / no-multi-pass-opt-rps / scenecut-bias=0.05 / no-opt-cu-delta-qp / no-aq-motion / no-hdr / no-hdr-opt / refine-level=5 / no-limit-sao
Default : Yes
Forced : No

Audio #1
ID : 2
Format : AC-3
Format/Info : Audio Coding 3
Commercial name : Dolby Digital
Codec ID : A_AC3
Duration : 1 h 50 min
Bit rate mode : Constant
Bit rate : 640 kb/s
Channel(s) : 6 channels
Channel layout : L R C LFE Ls Rs
Sampling rate : 48.0 kHz
Frame rate : 31.250 FPS (1536 SPF)
Compression mode : Lossy
Stream size : 507 MiB (10%)
Title : Dub МОСФИЛЬМ-мастер (handmade by krat11)
Language : Russian
Service kind : Complete Main
Default : No
Forced : No

Audio #2
ID : 3
Format : AC-3
Format/Info : Audio Coding 3
Commercial name : Dolby Digital
Codec ID : A_AC3
Duration : 1 h 50 min
Bit rate mode : Constant
Bit rate : 640 kb/s
Channel(s) : 6 channels
Channel layout : L R C LFE Ls Rs
Sampling rate : 48.0 kHz
Frame rate : 31.250 FPS (1536 SPF)
Compression mode : Lossy
Stream size : 507 MiB (10%)
Title : AVO Яроцкий Михаил (kyberpunk)
Language : Russian
Service kind : Complete Main
Default : No
Forced : No

Text
ID : 4
Format : UTF-8
Codec ID : S_TEXT/UTF8
Codec ID/Info : UTF-8 Plain Text
Duration : 1 h 42 min
Bit rate : 47 b/s
Count of elements : 525
Stream size : 35.5 KiB (0%)
Language : Russian
Default : No
Forced : No


скриншот   скриншот   скриншот   скриншот  




Убить Билла 2 - Kill Bill: Vol. 2 «Решающий удар»

Год выпуска: 2004
Страна: США
Жанр: боевик, триллер, криминал

Продолжительность: 02:17:00
Перевод: Дубляж
Перевод: Одноголосый закадровый (М. Яроцкий)
Субтитры: русские

Режиссер: Квентин Тарантино

В ролях: Ума Турман, Дэвид Кэррадайн, Люси Лью, Вивика А. Фокс, Джа Хуи Лью, Майкл Мэдсен, Дэрил Ханна, Майкл Паркс, Бо Свенсон, Дженни Эппер.

Описание:
Убив двух человек из банды, Невеста лишь наполовину приблизилась к цели. Теперь на очереди Бад и Элли Драйвер. Еще два опасных шага перед последней схваткой, в которой она должна убить Билла.

Мировая премьера: 8 апреля 2004


Качество: WEBRip 1080p by DD2D3
Формат: MKV
Видео кодек: V_MPEGH/ISO/HEVC
Аудио кодек: AC3
Видео: V_MPEGH/ISO/HEVC; 1920x1080 (16:9); 5002 Kbps; 59,940 fps;0,040 bpp
Аудио: русский; AC3; 640 Kbps; CBR; 6 ch
Аудио: русский; AC3; 448 Kbps; CBR; 6 ch
Навигация по главам: нет



General
Unique ID : 192536660460676126031904762916127021851 (0x90D9364425D861ABBFC6DE03F98E9B1B)
Complete name : D:\Kill Bill Dilogy (2003-2004) BDRip - HEVC 1080p 10 bit 60 FPS\Kill Bill Vol. 2 (2004) WEBRip - HEVC 1080p 10 bit 60 FPS.mkv
Format : Matroska
Format version : Version 4
File size : 5.83 GiB
Duration : 2 h 17 min
Overall bit rate : 6 096 kb/s
Movie name : Rip by from DD2D3
Encoded date : UTC 2020-12-25 11:15:10
Writing application : mkvmerge v10.0.0 ('To Drown In You') 32bit
Writing library : libebml v1.3.4 + libmatroska v1.4.5
Attachments : poster

Video
ID : 1
Format : HEVC
Format/Info : High Efficiency Video Coding
Format profile : Main 10@L4.1@Main
Codec ID : V_MPEGH/ISO/HEVC
Duration : 2 h 17 min
Bit rate : 5 002 kb/s
Width : 1 920 pixels
Height : 1 080 pixels
Display aspect ratio : 16:9
Frame rate mode : Constant
Frame rate : 59.940 (60000/1001) FPS
Color space : YUV
Chroma subsampling : 4:2:0
Bit depth : 10 bits
Bits/(Pixel*Frame) : 0.040
Stream size : 4.79 GiB (82%)
Writing library : x265 2.3+33-0b7d54dbb71a87a0:[Windows][MSVC 1800][64 bit] 10bit: KG7x [x265.ru]
Encoding settings : cpuid=1173503 / frame-threads=2 / numa-pools=4 / wpp / no-pmode / no-pme / no-psnr / no-ssim / log-level=2 / input-csp=1 / input-res=1920x1080 / interlace=0 / total-frames=492746 / level-idc=41 / high-tier=1 / uhd-bd=0 / ref=3 / no-allow-non-conformance / no-repeat-headers / annexb / no-aud / no-hrd / info / hash=0 / no-temporal-layers / open-gop / min-keyint=25 / keyint=250 / bframes=4 / b-adapt=2 / b-pyramid / bframe-bias=0 / rc-lookahead=20 / lookahead-slices=6 / scenecut=40 / no-intra-refresh / ctu=64 / min-cu-size=8 / no-rect / no-amp / max-tu-size=32 / tu-inter-depth=1 / tu-intra-depth=1 / limit-tu=0 / rdoq-level=0 / dynamic-rd=0.00 / no-ssim-rd / signhide / no-tskip / nr-intra=0 / nr-inter=0 / no-constrained-intra / strong-intra-smoothing / max-merge=2 / limit-refs=3 / no-limit-modes / me=1 / subme=2 / merange=57 / temporal-mvp / weightp / no-weightb / no-analyze-src-pics / deblock=0:0 / sao / no-sao-non-deblock / rd=3 / no-early-skip / rskip / no-fast-intra / no-tskip-fast / no-cu-lossless / no-b-intra / rdpenalty=0 / psy-rd=2.00 / psy-rdoq=0.00 / no-rd-refine / analysis-mode=0 / no-lossless / cbqpoffs=0 / crqpoffs=0 / rc=abr / bitrate=5000 / qcomp=0.60 / qpstep=4 / stats-write=0 / stats-read=2 / cplxblur=20.0 / qblur=0.5 / ipratio=1.40 / pbratio=1.30 / aq-mode=1 / aq-strength=1.00 / cutree / zone-count=0 / no-strict-cbr / qg-size=32 / no-rc-grain / qpmax=69 / qpmin=0 / sar=1 / overscan=0 / videoformat=5 / range=0 / colorprim=2 / transfer=2 / colormatrix=2 / chromaloc=0 / display-window=0 / max-cll=0,0 / min-luma=0 / max-luma=1023 / log2-max-poc-lsb=8 / vui-timing-info / vui-hrd-info / slices=1 / opt-qp-pps / opt-ref-list-length-pps / no-multi-pass-opt-rps / scenecut-bias=0.05 / no-opt-cu-delta-qp / no-aq-motion / no-hdr / no-hdr-opt / refine-level=5 / no-limit-sao
Default : Yes
Forced : No

Audio #1
ID : 2
Format : AC-3
Format/Info : Audio Coding 3
Commercial name : Dolby Digital
Codec ID : A_AC3
Duration : 2 h 17 min
Bit rate mode : Constant
Bit rate : 640 kb/s
Channel(s) : 6 channels
Channel layout : L R C LFE Ls Rs
Sampling rate : 48.0 kHz
Frame rate : 31.250 FPS (1536 SPF)
Compression mode : Lossy
Stream size : 627 MiB (10%)
Title : Dub студия CPIG (handmade by krat11)
Language : Russian
Service kind : Complete Main
Default : No
Forced : No

Audio #2
ID : 3
Format : AC-3
Format/Info : Audio Coding 3
Commercial name : Dolby Digital
Codec ID : A_AC3
Duration : 2 h 17 min
Bit rate mode : Constant
Bit rate : 448 kb/s
Channel(s) : 6 channels
Channel layout : L R C LFE Ls Rs
Sampling rate : 48.0 kHz
Frame rate : 31.250 FPS (1536 SPF)
Compression mode : Lossy
Stream size : 439 MiB (7%)
Title : AVO Яроцкий Михаил (kyberpunk)
Language : Russian
Service kind : Complete Main
Default : No
Forced : No

Text
ID : 4
Format : UTF-8
Codec ID : S_TEXT/UTF8
Codec ID/Info : UTF-8 Plain Text
Duration : 2 h 16 min
Bit rate : 68 b/s
Count of elements : 1161
Stream size : 68.1 KiB (0%)
Language : Russian
Default : No
Forced : No


скриншот   скриншот  скриншот   скриншот  




pb.wtf



Скачать Убить Билла: Дилогия через торрент https://funkyimg.com/i/39Bc9.jpg Скачать, смотреть онлайн Убить Билла: Дилогия бесплантно в хорошем качестве Описание: В беременную наемную убийцу по кличке Черная Мамба во время бракосочетания стреляет человек по имени Билл. Пуля в голове жертвы, ... 7.8 10 4
Торрент: Зарегистрирован [2020-12-25 13:58] · скачан: 18 раз
Статус: √ проверено
Размер: 10.7 GB
Как cкачать? Как скачать Убить Билла: Дилогия через торрент | UTorrent

% Раздел Тема Автор DL S | L
Сборники (HD Video) [ 10.57 GB ] Убить Билла: Дилогия / Kill Bill: Volume 1 & 2 [2003/2004 BDRip 1080p [HEVC] ] Мичман37 Скачать
1 | 0
Сборники на DVD и Сиквелы [DVDrip, WEB-DLRip, HDrip, BDRip] [ 3.93 GB ] Убить Билла: Дилогия / Kill Bill: Dilogy [2003-2004 HDRip by Dean24] Dean24 Скачать
1 | 0
Сборники (HD Video) [ 18.32 GB ] Убить Билла: Дилогия / Kill Bill: Dilogy [2003 / 2004 BDRip 720p ] -=DANTE=- Скачать
1 | 0
Сборники на DVD и Сиквелы [DVDrip, WEB-DLRip, HDrip, BDRip] [ 4.36 GB ] Убить Билла. Часть 1 2 Дилогия / Kill Bill: Vol. 1 2 Dilogy [2003 / 2004 BDRip] Newton5 Скачать
1 | 0

28-11-2019 20:33  

Отключить всю рекламу на сайте

    Дорогой пользователь! Огромная просьба, поблагодарите релизера, оцените раздачу и оставьте свои комментарий, если Вы скачали Убить Билла: Дилогия через торрент бесплатно!
    Комментировать посты могут только пользователи прошедшие не сложную регистрацию
    Показать сообщения:    

    Убить Билла: Дилогия через торрент
    Скачать бесплатно Убить Билла: Дилогия
    Убить Билла: Дилогия скачать торрент
    Убить Билла: Дилогия смотреть онлайн
    Cкачать фильм Убить Билла: Дилогия бесплатно
    Убить Билла: Дилогия скачать торрент в хорошем качестве
    Убить Билла: Дилогия смотреть онлайн бесплатно в хорошем качестве


    Вы не можете начинать темы
    Вы не можете отвечать на сообщения
    Вы не можете редактировать свои сообщения
    Вы не можете удалять свои сообщения
    Вы не можете голосовать в опросах
    Вы не можете прикреплять файлы к сообщениям
    Вы можете скачивать файлы