2 сезон

iTunes

MVO

1

2 сезон

iTunes

iTunes

1 сезон

RePack

30

Новинка

ВАЖНО

ИГРА 18+

pack

RePack

MK11
pack

Легкие деньги

RePack

jed

RePack

fifa19

RePack

RDR2

RePack

NEED FOR SPEED™ PAYBACK

4 сезон

9 сезон

Бесстыжие 9 сезон

Все сериалы

все сериалы на PB.wtf

RePack

FAR CRY 5

Anonymous, доброе утро, мы не успеваем собрать деньги на оплату серверов за декабрь и январь, помогите нам пожалуйста в это трудное время. В качестве благодарности мы отключим Вам всю рекламу на сайте (укажите свой ник в строку Ваше имя)!

×
  
Magnet ссылка

Военный ныряльщик / Men of Honor (Джордж Тиллман мл.) [2000 г., драма, биография, WEB-DLRip 720p / 60 FPS, Дубляж] ( Open Matte ) от R.G. HD-Films pb.wtf

Военный ныряльщик через торрент pb.wtf

Раздают: 5 [ 0 KB/s ]
Размер: 4.96 GB | Добавлен: 1 мес. 1 д. назад | Торрент скачан:91 раз
Скачать  

26-12-2020 17:27 Военный ныряльщик Скачать торрент  

Военный ныряльщик / Men of Honor
Год выпуска: 2000
Страна: США
Жанр: драма, биография
Продолжительность: 02:08:46
Перевод: Дубляж
Субтитры: Русские, Английские

Режиссер: Джордж Тиллман мл.

Бюджет: $32 000 000
Премьера в мире: 14 сентября 2000

rating

В ролях: Роберт Де Ниро, Кьюба Гудинг мл., Шарлиз Терон, Онжаню Эллис, Хэл Холбрук, Майкл Рапапорт, Пауэрс Бут, Дэвид Кит, Холт МакКэллани, Дэвид Конрад

Описание: Фильм основан на реальных событиях из жизни легендарного водолаза Карла Брашира. Его наставник и старший офицер Билл Сандэй убежден, что неграм нечего делать во флоте, и самыми жестокими и бесчеловечными способами издевается и «обламывает» амбициозного новичка.
Однако ему это не удается, и более того, вскоре он начинает испытывать симпатию к этому чрезвычайно упертому парню, который скорее погибнет, чем покажет слабость. Вместе они пытаются сопротивляться бюрократам из командования ВМФ, которых не устраивает цвет кожи героя.
Карл всегда вызывается добровольцем на выполнение самых опасных секретных спецопераций, связанных с повышенным риском для жизни. Однако судьба приготовила ему куда более страшное испытание, преодолеть которое способен только настоящий герой.


Качество: WEB-DLRip 720p / 60 FPS
Формат: MKV
Видео кодек: H.264
Аудио кодек: AC3
Видео: x264, 1280 x 720 ( 16:9 ), 5 129 kbps, 60,000 fps, ( 0.093 bpp)
Аудио#1: Русский, AC-3, 48.0 KHz, 6 ch, 384 Kbps Dub
Релиз от: Автор рипа: slaventi-69
x264 [info]: frame I:2241 Avg QP:15.70 size: 84985
x264 [info]: frame P:115340 Avg QP:16.56 size: 21389
x264 [info]: frame B:345565 Avg QP:19.55 size: 6631
x264 [info]: consecutive B-frames: 3.5% 2.1% 9.8% 19.5% 53.7% 11.3%


Общее
Уникальный идентификатор : 67648327490700718627321214874490322911 (0x32E4980DC6A9A45A619CD143653D3FDF)
Полное имя : G:\Men.of.Honor.(2000).WEB-DLRip.720p.(60 Fps).(Open Matte).mkv
Формат : Matroska
Версия формата : Version 4
Размер файла : 4,96 Гбайт
Продолжительность : 2 ч. 8 м.
Общий поток : 5 515 Кбит/сек
Название фильма : Военный ныряльщик / Men of Honor (2000) WEB-DLRip 720p (60 Fps) | Open Matte
Дата кодирования : UTC 2020-12-21 18:28:54
Программа кодирования : mkvmerge v35.0.0 ('All The Love In The World') 64-bit
Библиотека кодирования : libebml v1.3.9 + libmatroska v1.5.2

Видео
Идентификатор : 1
Формат : AVC
Формат/Информация : Advanced Video Codec
Профиль формата : High@L4.1
Настройки формата : CABAC / 9 Ref Frames
Параметр CABAC формата : Да
Параметр RefFrames формата : 9 кадров
Идентификатор кодека : V_MPEG4/ISO/AVC
Продолжительность : 2 ч. 8 м.
Битрейт : 5 129 Кбит/сек
Ширина : 1 280 пикселей
Высота : 720 пикселей
Соотношение сторон : 16:9
Режим частоты кадров : Постоянный
Частота кадров : 60,000 кадров/сек
Цветовое пространство : YUV
Субдискретизация насыщенности : 4:2:0
Битовая глубина : 8 бит
Тип развёртки : Прогрессивная
Бит/(Пиксели*Кадры) : 0.093
Размер потока : 4,61 Гбайт (93%)
Заголовок : slaventi-69 ( R.G. HD-Films | 60 fps )
Библиотека кодирования : x264 core 130 r2273 b3065e6
Настройки программы : cabac=1 / ref=9 / deblock=1:-2:-2 / analyse=0x3:0x133 / me=umh / subme=9 / psy=1 / psy_rd=1.00:0.00 / mixed_ref=1 / me_range=32 / chroma_me=1 / trellis=2 / 8x8dct=1 / cqm=0 / deadzone=21,11 / fast_pskip=1 / chroma_qp_offset=-2 / threads=10 / lookahead_threads=4 / sliced_threads=0 / nr=0 / decimate=1 / interlaced=0 / bluray_compat=0 / constrained_intra=0 / bframes=5 / b_pyramid=2 / b_adapt=2 / b_bias=0 / direct=2 / weightb=1 / open_gop=0 / weightp=2 / keyint=600 / keyint_min=23 / scenecut=40 / intra_refresh=0 / rc=crf / mbtree=0 / crf=17.0 / qcomp=0.60 / qpmin=0 / qpmax=69 / qpstep=4 / ip_ratio=1.40 / pb_ratio=1.30 / aq=1:1.00
Язык : English
Default : Да
Forced : Нет

Аудио
Идентификатор : 2
Формат : AC-3
Формат/Информация : Audio Coding 3
Коммерческое название : Dolby Digital
Идентификатор кодека : A_AC3
Продолжительность : 2 ч. 8 м.
Вид битрейта : Постоянный
Битрейт : 384 Кбит/сек
Каналы : 6 каналов
Channel layout : L R C LFE Ls Rs
Частота : 48,0 КГц
Частота кадров : 31,250 кадров/сек (1536 SPF)
Метод сжатия : С потерями
Размер потока : 353 Мбайт (7%)
Заголовок : Dub
Язык : Russian
Service kind : Complete Main
Default : Да
Forced : Нет

Текст #1
Идентификатор : 3
Формат : UTF-8
Идентификатор кодека : S_TEXT/UTF8
Идентификатор кодека/Информация : UTF-8 Plain Text
Продолжительность : 2 ч. 8 м.
Битрейт : 75 бит/сек
Count of elements : 1215
Размер потока : 70,7 Кбайт (0%)
Язык : Russian
Default : Нет
Forced : Нет

Текст #2
Идентификатор : 4
Формат : UTF-8
Идентификатор кодека : S_TEXT/UTF8
Идентификатор кодека/Информация : UTF-8 Plain Text
Продолжительность : 1 ч. 59 м.
Битрейт : 45 бит/сек
Count of elements : 1141
Размер потока : 39,7 Кбайт (0%)
Язык : English
Default : Нет
Forced : Нет

Меню
00:00:00.000 : :00:00:00.000
00:07:31.534 : :00:07:31.534
00:14:51.599 : :00:14:51.599
00:21:40.298 : :00:21:40.298
00:27:09.669 : :00:27:09.669
00:36:03.286 : :00:36:03.286
00:42:32.550 : :00:42:32.550
00:49:09.571 : :00:49:09.571
00:54:16.461 : :00:54:16.461
01:04:24.944 : :01:04:24.944
01:10:44.365 : :01:10:44.365
01:19:32.017 : :01:19:32.017
01:25:00.720 : :01:25:00.720
01:31:57.678 : :01:31:57.678
01:41:48.310 : :01:41:48.310
01:48:11.234 : :01:48:11.234
01:55:17.744 : :01:55:17.744
02:02:24.337 : :02:02:24.337

Просьба к переливающим на другие сайты, в оформлении указывайте пожалуйста авторство группы R.G. HD-Films pb.wtf



Скачать Военный ныряльщик через торрент http://s019.radikal.ru/i632/1602/d4/f3d2fd70a0a6.jpg Скачать фильм Военный ныряльщик через торрент бесплантно в хорошем качестве Описание: Фильм основан на реальных событиях из жизни легендарного водолаза Карла Брашира. Его наставник и старший офицер Билл Сандэй ... 9.8 10 10
Info! Золотая раздача, скачанное не засчитывается.
Торрент: Зарегистрирован [2020-12-26 17:27] · скачан: 91 раз
Статус: √ проверено
Размер: 4.96 GB
Как cкачать? Как скачать Военный ныряльщик через торрент | UTorrent

28-11-2019 20:33  

Отключить всю рекламу на сайте

28-12-2020 11:09 Военный ныряльщик Скачать торрент  

slaventi-69, безумно благодарен! Классика, забираю!pb.wtf



28-12-2020 14:09 Военный ныряльщик Скачать торрент  

Vladislav@Pskov(5000), - Спасибо за золото.
Смотрите в удовольствие.pb.wtf



    Дорогой пользователь! Огромная просьба, поблагодарите релизера, оцените раздачу и оставьте свои комментарий, если Вы скачали Военный ныряльщик через торрент бесплатно! Внесите свою лепту в развитие PiratBit!
    Комментировать посты могут только пользователи прошедшие не сложную регистрацию
    Показать сообщения:    

    Военный ныряльщик через торрент
    Скачать бесплатно Военный ныряльщик
    Военный ныряльщик скачать торрент
    Военный ныряльщик смотреть онлайн
    Cкачать фильм Военный ныряльщик бесплатно
    Военный ныряльщик скачать торрент в хорошем качестве
    Военный ныряльщик смотреть онлайн бесплатно в хорошем качестве


    Вы не можете начинать темы
    Вы не можете отвечать на сообщения
    Вы не можете редактировать свои сообщения
    Вы не можете удалять свои сообщения
    Вы не можете голосовать в опросах
    Вы не можете прикреплять файлы к сообщениям
    Вы можете скачивать файлы