Всегда рабочее зеркало без VPN и Proxy просто перед .vidak.icu напиши любое слово или цифру, Пример http://hdgt.vidak.icu

MVO

2 сезон

2 сезон

1

1 сезон

iTunes

2 сезон

13

1 сезон

Распродажа

pack

Рекомендуем

Пиратка

30

ВАЖНО

RePack

MK11

RePack

jed

RePack

fifa19

RePack

RDR2

RePack

NEED FOR SPEED™ PAYBACK

Кинопоиск HD

6 сезон

 Острые козырьки 6 сезон

Все сериалы

все сериалы на PB.wtf

RePack

FAR CRY 5

Anonymous, нам критически не хватает 5601 руб. на оплату серверов и переферии за Апрель, помоги нам пожалуйста, вся надежда только на тебя. В благодарность мы отключим тебе всю рекламу на сайте!

×
  
Magnet ссылка

Бойцовский клуб / Fight Club (Дэвид Финчер) [1999, боевик, триллер, драма, BDRip (HEVC)1080p] [DUB] + 3x[MVO] + [DVO] + 4x[AVO] pb.wtf

Бойцовский клуб через торрент pb.wtf

Раздают: 1 [ 0 KB/s ]
Размер: 8.21 GB | Добавлен: 1 год 4 мес. назад | Торрент скачан:113 раз
Смотреть онлайн Бойцовский клуб | Скачать    Ребята, помогите собрать деньги на оплату серверов!!!

29-12-2020 16:49 Бойцовский клуб Скачать торрент  

Бойцовский клуб / Fight Club
«Интриги. Хаос. Мыло.»


Год выпуска: 1999
Страна: США, Германия
Жанр: Триллер, драма, криминал, детектив
Продолжительность: 02:19:08
Перевод #1: Профессиональный (полное дублирование) R5
Перевод #2: Профессиональный (многоголосый закадровый) - РТР
Перевод #3: Профессиональный (многоголосый закадровый) - Позитив Мультимедиа
Перевод #4: Профессиональный (многоголосый закадровый) - Карусель
Перевод #5: Профессиональный (двухголосый закадровый) - Tycoon
Перевод #6: Авторский (одноголосый закадровый) - Гаврилов
Перевод #7: Авторский (одноголосый закадровый) - Сербин
Перевод #8: Авторский (одноголосый закадровый) - Визгунов
Перевод #9: Авторский (одноголосый закадровый) - DictorCDV

Субтитры: нет
Режиссер: Дэвид Финчер / David Fincher
В ролях: Эдвард Нортон, Брэд Питт, Хелена Бонем Картер, Мит Лоаф, Зэк Гренье, Холт МакКэллани, Джаред Лето, Эйон Бэйли, Ричмонд Аркетт, Дэвид Эндрюс и др.
Описание: Терзаемый хронической бессонницей и отчаянно пытающийся вырваться из мучительно скучной жизни клерк встречает некоего Тайлера Дардена, харизматического торговца мылом с извращенной философией. Тайлер уверен, что самосовершенствование — удел слабых, а саморазрушение — единственное, ради чего стоит жить.
Пройдет немного времени, и вот уже главные герои лупят друг друга почем зря на стоянке перед баром, и очищающий мордобой доставляет им высшее блаженство. Приобщая других мужчин к простым радостям физической жестокости, они основывают тайный Бойцовский Клуб, который имеет огромный успех. Но в концовке фильма всех ждет шокирующее открытие, которое может привести к непредсказуемым событиям…
rating


Качество видео: BDRip (HEVC) 1080p
Формат: MKV
Видео кодек: x.265
Аудио кодек: AC3
Видео: HEVC/H.265, 1920x800, 23,976 fps, ~4823 Kbps, 10 bit
Аудио#1: 48 kHz, AC3, 6 ch, ~448.00 kbps avg |Профессиональный, дублированный|
Аудио#2: 48 kHz, AC3, 2 ch, ~192.00 kbps avg |Профессиональный, многоголосый РТР|
Аудио#3: 48 kHz, AC3, 6 ch, ~384.00 kbps avg |Профессиональный, многоголосый Позитив Мультимедиа|
Аудио#4: 48 kHz, AC3, 6 ch, ~384.00 kbps avg |Профессиональный, многоголосый Карусель|
Аудио#5: 48 kHz, AC3, 6 ch, ~384.00 kbps avg |Профессиональный, двухголосый Tycoon|
Аудио#6: 48 kHz, AC3, 6 ch, ~448.00 kbps avg |Авторский, одноголосый - Гаврилов|
Аудио#7: 48 kHz, AC3, 6 ch, ~384.00 kbps avg |Авторский, одноголосый - Сербин|
Аудио#8: 48 kHz, AC3, 6 ch, ~448.00 kbps avg |Авторский, одноголосый - Визгунов|
Аудио#9: 48 kHz, AC3, 6 ch, ~384.00 kbps avg |Авторский, одноголосый - DictorCDV|
General
Unique ID : 212389608913229827184343535493307043678 (0x9FC8C03259676F57A586F09EF20E0F5E)
Complete name : G:\ФИЛЬМЫ\Fight Club.1999.BDRip (HEVC)1080p.[DUB], 3x[MVO], [DVO], 4x[AVO].xz.mkv
Format : Matroska
Format version : Version 4
File size : 8.21 GiB
Duration : 2 h 19 min
Overall bit rate : 8 447 kb/s
Movie name : Fight Club.1999.BDRip (HEVC)1080p.[DUB], 3x[MVO], [DVO], 4x[AVO].xz
Encoded date : UTC 2020-12-29 16:15:12
Writing application : mkvmerge v6.1.0 ('Old Devil') built on Mar 2 2013 14:32:37
Writing library : libebml v1.3.0 + libmatroska v1.4.0
Cover : Yes
Attachments : cover.jpg

Video
ID : 1
Format : HEVC
Format/Info : High Efficiency Video Coding
Format profile : Main 10@L4@Main
Codec ID : V_MPEGH/ISO/HEVC
Duration : 2 h 19 min
Bit rate : 4 823 kb/s
Width : 1 920 pixels
Height : 800 pixels
Display aspect ratio : 2.40:1
Frame rate mode : Constant
Frame rate : 23.976 (24000/1001) FPS
Color space : YUV
Chroma subsampling : 4:2:0
Bit depth : 10 bits
Bits/(Pixel*Frame) : 0.131
Stream size : 4.69 GiB (57%)
Title : Fight Club.1999.BDRip (HEVC)1080p.[DUB], 3x[MVO], [DVO], 4x[AVO].xz
Writing library : x265 3.4+6-g73f96ff39:[Windows][GCC 11.0.0][64 bit] 10bit
Encoding settings : cpuid=1111039 / frame-threads=4 / numa-pools=16 / wpp / no-pmode / no-pme / no-psnr / no-ssim / log-level=2 / input-csp=1 / input-res=1920x800 / interlace=0 / total-frames=200161 / level-idc=0 / high-tier=1 / uhd-bd=0 / ref=4 / no-allow-non-conformance / no-repeat-headers / annexb / no-aud / no-hrd / info / hash=0 / no-temporal-layers / open-gop / min-keyint=23 / keyint=250 / gop-lookahead=0 / bframes=8 / b-adapt=2 / b-pyramid / bframe-bias=0 / rc-lookahead=40 / lookahead-slices=4 / scenecut=40 / hist-scenecut=0 / radl=0 / no-splice / no-intra-refresh / ctu=64 / min-cu-size=8 / rect / no-amp / max-tu-size=32 / tu-inter-depth=1 / tu-intra-depth=1 / limit-tu=0 / rdoq-level=2 / dynamic-rd=0.00 / no-ssim-rd / signhide / no-tskip / nr-intra=0 / nr-inter=100 / no-constrained-intra / strong-intra-smoothing / max-merge=3 / limit-refs=3 / limit-modes / me=3 / subme=4 / merange=57 / temporal-mvp / no-frame-dup / no-hme / weightp / no-weightb / no-analyze-src-pics / deblock=-1:-1 / sao / no-sao-non-deblock / rd=4 / selective-sao=4 / no-early-skip / rskip / no-fast-intra / no-tskip-fast / no-cu-lossless / no-b-intra / no-splitrd-skip / rdpenalty=0 / psy-rd=2.00 / psy-rdoq=1.00 / no-rd-refine / no-lossless / cbqpoffs=0 / crqpoffs=0 / rc=crf / crf=20.0 / qcomp=0.60 / qpstep=4 / stats-write=0 / stats-read=0 / ipratio=1.40 / pbratio=1.30 / aq-mode=2 / aq-strength=1.00 / cutree / zone-count=0 / no-strict-cbr / qg-size=32 / no-rc-grain / qpmax=69 / qpmin=0 / no-const-vbv / sar=0 / overscan=0 / videoformat=5 / range=0 / colorprim=1 / transfer=1 / colormatrix=1 / chromaloc=0 / display-window=0 / cll=0,0 / min-luma=0 / max-luma=1023 / log2-max-poc-lsb=8 / vui-timing-info / vui-hrd-info / slices=1 / no-opt-qp-pps / no-opt-ref-list-length-pps / no-multi-pass-opt-rps / scenecut-bias=0.05 / hist-threshold=0.01 / no-opt-cu-delta-qp / no-aq-motion / no-hdr10 / no-hdr10-opt / no-dhdr10-opt / no-idr-recovery-sei / analysis-reuse-level=0 / analysis-save-reuse-level=0 / analysis-load-reuse-level=0 / scale-factor=0 / refine-intra=0 / refine-inter=0 / refine-mv=1 / refine-ctu-distortion=0 / no-limit-sao / ctu-info=0 / no-lowpass-dct / refine-analysis-type=0 / copy-pic=1 / max-ausize-factor=1.0 / no-dynamic-refine / no-single-sei / no-hevc-aq / no-svt / no-field / qp-adaptation-range=1.00 / no-scenecut-aware-qpconformance-window-offsets / right=0 / bottom=0 / decoder-max-rate=0
Default : Yes
Forced : No
Color range : Limited
Color primaries : BT.709
Transfer characteristics : BT.709
Matrix coefficients : BT.709
Duration_Source : General_Duration

Audio #1
ID : 2
Format : AC-3
Format/Info : Audio Coding 3
Commercial name : Dolby Digital
Codec ID : A_AC3
Duration : 2 h 19 min
Bit rate mode : Constant
Bit rate : 448 kb/s
Channel(s) : 6 channels
Channel layout : L R C LFE Ls Rs
Sampling rate : 48.0 kHz
Frame rate : 31.250 FPS (1536 SPF)
Compression mode : Lossy
Stream size : 446 MiB (5%)
Title : DUB
Language : Russian
Service kind : Complete Main
Default : Yes
Forced : No
Duration_Source : General_Duration

Audio #2
ID : 3
Format : AC-3
Format/Info : Audio Coding 3
Commercial name : Dolby Digital
Codec ID : A_AC3
Duration : 2 h 19 min
Bit rate mode : Constant
Bit rate : 192 kb/s
Channel(s) : 2 channels
Channel layout : L R
Sampling rate : 48.0 kHz
Frame rate : 31.250 FPS (1536 SPF)
Compression mode : Lossy
Delay relative to video : 1 s 800 ms
Stream size : 191 MiB (2%)
Title : PTP_MVO
Language : Russian
Service kind : Complete Main
Default : No
Forced : No
Duration_Source : General_Duration

Audio #3
ID : 4
Format : AC-3
Format/Info : Audio Coding 3
Commercial name : Dolby Digital
Codec ID : A_AC3
Duration : 2 h 19 min
Bit rate mode : Constant
Bit rate : 384 kb/s
Channel(s) : 6 channels
Channel layout : L R C LFE Ls Rs
Sampling rate : 48.0 kHz
Frame rate : 31.250 FPS (1536 SPF)
Compression mode : Lossy
Delay relative to video : 1 s 800 ms
Stream size : 382 MiB (5%)
Title : Pozitiv_MVO
Language : Russian
Service kind : Complete Main
Default : No
Forced : No
Duration_Source : General_Duration

Audio #4
ID : 5
Format : AC-3
Format/Info : Audio Coding 3
Commercial name : Dolby Digital
Codec ID : A_AC3
Duration : 2 h 19 min
Bit rate mode : Constant
Bit rate : 384 kb/s
Channel(s) : 6 channels
Channel layout : L R C LFE Ls Rs
Sampling rate : 48.0 kHz
Frame rate : 31.250 FPS (1536 SPF)
Compression mode : Lossy
Delay relative to video : 1 s 800 ms
Stream size : 382 MiB (5%)
Title : Karusel_MVO
Language : Russian
Service kind : Complete Main
Default : No
Forced : No
Duration_Source : General_Duration

Audio #5
ID : 6
Format : AC-3
Format/Info : Audio Coding 3
Commercial name : Dolby Digital
Codec ID : A_AC3
Duration : 2 h 19 min
Bit rate mode : Constant
Bit rate : 384 kb/s
Channel(s) : 6 channels
Channel layout : L R C LFE Ls Rs
Sampling rate : 48.0 kHz
Frame rate : 31.250 FPS (1536 SPF)
Compression mode : Lossy
Delay relative to video : 1 s 800 ms
Stream size : 382 MiB (5%)
Title : Tycoon_DVO
Language : Russian
Service kind : Complete Main
Default : No
Forced : No
Duration_Source : General_Duration

Audio #6
ID : 7
Format : AC-3
Format/Info : Audio Coding 3
Commercial name : Dolby Digital
Codec ID : A_AC3
Duration : 2 h 19 min
Bit rate mode : Constant
Bit rate : 448 kb/s
Channel(s) : 6 channels
Channel layout : L R C LFE Ls Rs
Sampling rate : 48.0 kHz
Frame rate : 31.250 FPS (1536 SPF)
Compression mode : Lossy
Stream size : 446 MiB (5%)
Title : Gavrilov
Language : Russian
Service kind : Complete Main
Default : No
Forced : No
Duration_Source : General_Duration

Audio #7
ID : 8
Format : AC-3
Format/Info : Audio Coding 3
Commercial name : Dolby Digital
Codec ID : A_AC3
Duration : 2 h 19 min
Bit rate mode : Constant
Bit rate : 384 kb/s
Channel(s) : 6 channels
Channel layout : L R C LFE Ls Rs
Sampling rate : 48.0 kHz
Frame rate : 31.250 FPS (1536 SPF)
Compression mode : Lossy
Delay relative to video : 1 s 800 ms
Stream size : 382 MiB (5%)
Title : Serbin
Language : Russian
Service kind : Complete Main
Default : No
Forced : No
Duration_Source : General_Duration

Audio #8
ID : 9
Format : AC-3
Format/Info : Audio Coding 3
Commercial name : Dolby Digital
Codec ID : A_AC3
Duration : 2 h 19 min
Bit rate mode : Constant
Bit rate : 448 kb/s
Channel(s) : 6 channels
Channel layout : L R C LFE Ls Rs
Sampling rate : 48.0 kHz
Frame rate : 31.250 FPS (1536 SPF)
Compression mode : Lossy
Stream size : 446 MiB (5%)
Title : Vizgunov
Language : Russian
Service kind : Complete Main
Default : No
Forced : No
Duration_Source : General_Duration

Audio #9
ID : 10
Format : AC-3
Format/Info : Audio Coding 3
Commercial name : Dolby Digital
Codec ID : A_AC3
Duration : 2 h 19 min
Bit rate mode : Constant
Bit rate : 384 kb/s
Channel(s) : 6 channels
Channel layout : L R C LFE Ls Rs
Sampling rate : 48.0 kHz
Frame rate : 31.250 FPS (1536 SPF)
Compression mode : Lossy
Stream size : 382 MiB (5%)
Title : DictorCDV
Language : Russian
Service kind : Complete Main
Default : No
Forced : No
Duration_Source : General_Duration

Menu
00:00:00.000 : :Fear Center (Main Titles)
00:02:08.378 : :Ground Zero
00:03:54.817 : :Insomnia
00:04:46.327 : :Nesting Instinct
00:06:21.923 : :Remaining Men Together
00:10:22.204 : :Power Animal
00:11:34.902 : :Marla
00:19:13.569 : :Single Serving Jack
00:21:41.174 : :Tyler
00:25:48.004 : :Jack's Nice Neat Flaming Shit
00:29:09.330 : :Lament for a Sofa
00:32:27.195 : :Odd Jobs
00:34:10.465 : :Hit Me
00:35:57.947 : :Paper Street
00:41:36.994 : :Welcome to Fight Club
00:47:18.961 : :Infectious Human Waste
00:48:37.873 : :Sport Fucking
01:00:18.281 : :Tyler's Secret Formula Soap
01:01:56.254 : :Chemical Burn
01:09:48.434 : :The Middle Children of History
01:14:57.951 : :Homework
01:15:47.626 : :Jack's Smirking Revenge
01:19:35.854 : :Project Mayhem
01:21:29.467 : :Human Sacrafice
01:27:38.544 : :Space Monkeys
01:35:36.981 : :Psycho Boy
01:37:48.070 : :A Near-Life Experience
01:41:26.789 : :Tyler Says Goodbye
01:45:07.467 : :Operation Latt Thunder
01:47:58.180 : :Deja Vu
01:50:34.878 : :Changeover
01:56:53.172 : :Mea Culpa
02:00:36.812 : :Castrating Cops
02:05:55.714 : :Kicking and Screaming
02:09:38.353 : :Walls of Jericho
02:15:53.979 : :End Credits

скриншот   скриншот   скриншот   скриншот   скриншот   скриншот  
pb.wtf



Скачать Бойцовский клуб через торрент http://i26.fastpic.ru/big/2012/1007/69/f92c0003ecc06a772667eab12baab769.png Скачать, смотреть онлайн Бойцовский клуб бесплантно в хорошем качестве Описание: Терзаемый хронической бессонницей и отчаянно пытающийся вырваться из мучительно скучной жизни клерк встречает некоего Тайлера ... 9.9 10 7
Торрент: Зарегистрирован [2020-12-30 10:52] · скачан: 113 раз
Статус: √ проверено
Размер: 8.21 GB
Как cкачать? Как скачать Бойцовский клуб через торрент | UTorrent

% Раздел Тема Автор DL S | L
Фильмы (HD 720p, 1080p) (48-60 fps) [ 5.56 GB ] Бойцовский клуб / Fight Club [1999 WEB-DLRip 720p / 60 FPS ] от R.G. HD-Films slaventi-69 Скачать
3 | 0
Фильмы (HD 720p, 1080p) (48-60 fps) [ 7.06 GB ] Бойцовский клуб / Fight Club [1999 HDTVRip - HEVC 1080p 10 bit 60 FPS DUB AVO] dd2d3 Скачать
2 | 1
T Фильмы [HD 720p, 1080p] (Хороший звук DUB, MVO) [ 6.8 GB ] Женский бойцовский клуб / Female Fight Club [2017 BDRip 1080p] MVO bober100 Скачать
1 | 0
Фильмы (WEB-DL 720p, 1080p) [ 3.74 GB ] Женский бойцовский клуб / Female Fight Club [2017 WEB-DL 1080p] MVO [Прайд Продакшн] bober100 Скачать
1 | 0
Фильмы [HD 720p, 1080p] (Хороший звук DUB, MVO) [ 11.82 GB ] Бойцовский клуб / Fight Club [1999 BDRip 1080p HEVC +MVO] Мичман37 Скачать
1 | 0
Ultra HD (UHD: 2K, 4K, 8K) — видео сверхвысокой чёткости [ 104.92 GB ] Бойцовский клуб / Fight Club [1999 UHD BDRemux 2160p] [Remastered] DUB + DVO + 4xMVO + 11xAVO + 2xMVO sheker187 Скачать
1 | 0
Фильмы [HD 720p, 1080p] (Хороший звук DUB, MVO) [ 27.55 GB ] Бойцовский клуб / Fight Club [1999 BDRip 1080p] Dub + 5xMVO + 8xAVO + Original + Sub Seedtank Скачать
1 | 0

28-11-2019 20:33  

Отключить всю рекламу на сайте

    Дорогой пользователь! Огромная просьба, поблагодарите релизера, оцените раздачу и оставьте свои комментарий, если Вы скачали Бойцовский клуб через торрент бесплатно!
    Комментировать посты могут только пользователи прошедшие не сложную регистрацию
    Показать сообщения:    

    Бойцовский клуб через торрент
    Скачать бесплатно Бойцовский клуб
    Бойцовский клуб скачать торрент
    Бойцовский клуб смотреть онлайн
    Cкачать фильм Бойцовский клуб бесплатно
    Бойцовский клуб скачать торрент в хорошем качестве
    Бойцовский клуб смотреть онлайн бесплатно в хорошем качестве


    Вы не можете начинать темы
    Вы не можете отвечать на сообщения
    Вы не можете редактировать свои сообщения
    Вы не можете удалять свои сообщения
    Вы не можете голосовать в опросах
    Вы не можете прикреплять файлы к сообщениям
    Вы можете скачивать файлы