2 сезон

iTunes

MVO

1

2 сезон

iTunes

iTunes

1 сезон

RePack

30

Новинка

ВАЖНО

ИГРА 18+

pack

RePack

MK11
pack

Легкие деньги

RePack

jed

RePack

fifa19

RePack

RDR2

RePack

NEED FOR SPEED™ PAYBACK

4 сезон

9 сезон

Бесстыжие 9 сезон

Все сериалы

все сериалы на PB.wtf

RePack

FAR CRY 5

Anonymous, доброе утро, мы не успеваем собрать деньги на оплату серверов за декабрь и январь, помогите нам пожалуйста в это трудное время. В качестве благодарности мы отключим Вам всю рекламу на сайте (укажите свой ник в строку Ваше имя)!

×
  
Magnet ссылка

Довод / Tenet (Кристофер Нолан) [2020 г., Фантастика, боевик, сюрреализм, BDRip 720p / 60 FPS, (IMAX Edition) DUB (rus, ukr) iTunes] от R.G. HD-Films pb.wtf

Довод через торрент pb.wtf

Раздают: 15 [ 184 KB/s ]
Размер: 6.9 GB | Добавлен: 24 д. назад | Торрент скачан:194 раза
Скачать  

30-12-2020 16:39 Довод Скачать торрент  

Довод / Tenet
Год выпуска: 2020
Страна: Великобритания, США
Жанр: Фантастика, боевик, сюрреализм
Продолжительность: 02:30:08
Перевод: Дубляж iTunes
Субтитры: русские, украинские, английские

Режиссер: Кристофер Нолан

Бюджет: $205 000 000
Премьера в мире: 22 августа 2020

rating

В ролях: Джон Дэвид Вашингтон, Роберт Паттинсон, Элизабет Дебики, Кеннет Брана, Аарон Тейлор-Джонсон, Клеманс Поэзи, Фиона Дуриф, Майкл Кейн, Химеш Патель, Эндрю Ховард, Уэс Чэтэм, Юрий Колокольников, Димпл Кападиа

Описание: После теракта в Национальной Опере Украины агент ЦРУ объединяется с британской разведкой, чтобы противостоять русскому олигарху, который сколотил состояние на торговле оружием. Вооруженный единственным словом - Тенет (довод) главный герой борется за выживание всего мира. Он путешествует по окутанному сумерками миру международного шпионажа с единственной миссией, которая развернется за пределами реального времени. Это не путешествие сквозь время. Это инверсия.

Качество: BDRip 720p / 60 FPS
Формат: MKV
Видео кодек: H.264
Аудио кодек: AC3
Видео: x264, 1280 x 720 ( 16:9 ), 5483 kbps, 60,000 fps, ( 0.099 bpp)
Аудио#1: 48 kHz, AC3, 5.1, 448 Kbps | iTunes | RUS
Аудио#2: 48 kHz, AC3, 2.0, 192 Kbps | iTunes | UKR
Аудио#3: 48 kHz, AC3, 5.1, 448 Kbps | Оригинал | ENG
Релиз от: Автор рипа: slaventi-69
x264 info: frame I:2843 Avg QP:11.81 size:103581
x264 info: frame P:115671 Avg QP:14.14 size: 34835
x264 info: frame B:422023 Avg QP:13.85 size: 4386
x264 info: consecutive B-frames: 1.1% 2.2% 3.6% 23.3% 31.5% 38.3%


Общее
Уникальный идентификатор : 103933885330674212717393424778681269476 (0x4E30F02DD76B3B8B366E749ED4B63CE4)
Полное имя : E:\Tenet.(2020).BDRip.720p.(60 Fps).(IMAX Edition).mkv
Формат : Matroska
Версия формата : Version 4
Размер файла : 6,90 Гбайт
Продолжительность : 2 ч. 30 м.
Общий поток : 6576 Кбит/сек
Название фильма : Довод / Tenet (2020) BDRip 720p (60 Fps) | IMAX Edition
Дата кодирования : UTC 2020-12-30 16:01:01
Программа кодирования : mkvmerge v35.0.0 ('All The Love In The World') 64-bit
Библиотека кодирования : libebml v1.3.9 + libmatroska v1.5.2

Видео
Идентификатор : 1
Формат : AVC
Формат/Информация : Advanced Video Codec
Профиль формата : High@L4.1
Настройки формата : CABAC / 9 Ref Frames
Параметр CABAC формата : Да
Параметр RefFrames формата : 9 кадров
Идентификатор кодека : V_MPEG4/ISO/AVC
Продолжительность : 2 ч. 30 м.
Битрейт : 5483 Кбит/сек
Номинальный битрейт : 5800 Кбит/сек
Ширина : 1280 пикселей
Высота : 720 пикселей
Соотношение сторон : 16:9
Режим частоты кадров : Постоянный
Частота кадров : 60,000 кадров/сек
Цветовое пространство : YUV
Субдискретизация насыщенности : 4:2:0
Битовая глубина : 8 бит
Тип развёртки : Прогрессивная
Бит/(Пиксели*Кадры) : 0.099
Размер потока : 5,75 Гбайт (83%)
Заголовок : slaventi-69 ( R.G. HD-Films | 60 fps )
Библиотека кодирования : x264 core 157 r2958 57baac4
Настройки программы : cabac=1 / ref=9 / deblock=1:-2:-2 / analyse=0x3:0x133 / me=umh / subme=9 / psy=1 / psy_rd=1.00:0.00 / mixed_ref=1 / me_range=32 / chroma_me=1 / trellis=2 / 8x8dct=1 / cqm=0 / deadzone=21,11 / fast_pskip=1 / chroma_qp_offset=4 / threads=10 / lookahead_threads=4 / sliced_threads=0 / nr=0 / decimate=1 / interlaced=0 / bluray_compat=0 / constrained_intra=0 / bframes=5 / b_pyramid=2 / b_adapt=2 / b_bias=4 / direct=1 / weightb=1 / open_gop=0 / weightp=2 / keyint=600 / keyint_min=23 / scenecut=40 / intra_refresh=0 / rc_lookahead=0 / rc=cbr / mbtree=0 / bitrate=5800 / ratetol=1.0 / qcomp=0.60 / qpmin=0 / qpmax=69 / qpstep=4 / vbv_maxrate=5800 / vbv_bufsize=4142 / nal_hrd=none / filler=0 / ip_ratio=1.40 / pb_ratio=1.30 / aq=1:1.00
Язык : English
Default : Да
Forced : Нет
Цветовой диапазон : Limited
Основные цвета : BT.709
Характеристики трансфера : BT.709
Коэффициенты матрицы : BT.709

Аудио #1
Идентификатор : 2
Формат : AC-3
Формат/Информация : Audio Coding 3
Коммерческое название : Dolby Digital
Идентификатор кодека : A_AC3
Продолжительность : 2 ч. 30 м.
Вид битрейта : Постоянный
Битрейт : 448 Кбит/сек
Каналы : 6 каналов
Channel layout : L R C LFE Ls Rs
Частота : 48,0 КГц
Частота кадров : 31,250 кадров/сек (1536 SPF)
Битовая глубина : 16 бит
Метод сжатия : С потерями
Размер потока : 481 Мбайт (7%)
Заголовок : iTunes
Язык : Russian
ServiceKind/String : Complete Main
Default : Да
Forced : Нет

Аудио #2
Идентификатор : 3
Формат : AC-3
Формат/Информация : Audio Coding 3
Коммерческое название : Dolby Digital
Идентификатор кодека : A_AC3
Продолжительность : 2 ч. 30 м.
Вид битрейта : Постоянный
Битрейт : 192 Кбит/сек
Каналы : 2 канала
Channel layout : L R
Частота : 48,0 КГц
Частота кадров : 31,250 кадров/сек (1536 SPF)
Битовая глубина : 16 бит
Метод сжатия : С потерями
Размер потока : 206 Мбайт (3%)
Заголовок : iTunes
Язык : Ukrainian
ServiceKind/String : Complete Main
Default : Нет
Forced : Нет

Аудио #3
Идентификатор : 4
Формат : AC-3
Формат/Информация : Audio Coding 3
Коммерческое название : Dolby Digital
Идентификатор кодека : A_AC3
Продолжительность : 2 ч. 30 м.
Вид битрейта : Постоянный
Битрейт : 448 Кбит/сек
Каналы : 6 каналов
Channel layout : L R C LFE Ls Rs
Частота : 48,0 КГц
Частота кадров : 31,250 кадров/сек (1536 SPF)
Битовая глубина : 16 бит
Метод сжатия : С потерями
Размер потока : 481 Мбайт (7%)
Заголовок : Original
Язык : English
ServiceKind/String : Complete Main
Default : Нет
Forced : Нет

Текст #1
Идентификатор : 5
Формат : UTF-8
Идентификатор кодека : S_TEXT/UTF8
Идентификатор кодека/Информация : UTF-8 Plain Text
Продолжительность : 2 ч. 27 м.
Битрейт : 0 бит/сек
ElementCount : 28
Размер потока : 811 байт (0%)
Заголовок : Forced
Язык : Russian
Default : Да
Forced : Нет

Текст #2
Идентификатор : 6
Формат : UTF-8
Идентификатор кодека : S_TEXT/UTF8
Идентификатор кодека/Информация : UTF-8 Plain Text
Продолжительность : 2 ч. 28 м.
Битрейт : 90 бит/сек
ElementCount : 1854
Размер потока : 98,8 Кбайт (0%)
Заголовок : Full
Язык : Russian
Default : Нет
Forced : Нет

Текст #3
Идентификатор : 7
Формат : UTF-8
Идентификатор кодека : S_TEXT/UTF8
Идентификатор кодека/Информация : UTF-8 Plain Text
Продолжительность : 2 ч. 16 м.
Битрейт : 0 бит/сек
ElementCount : 24
Размер потока : 731 байт (0%)
Заголовок : Forced
Язык : Ukrainian
Default : Нет
Forced : Нет

Текст #4
Идентификатор : 8
Формат : UTF-8
Идентификатор кодека : S_TEXT/UTF8
Идентификатор кодека/Информация : UTF-8 Plain Text
Продолжительность : 2 ч. 22 м.
Битрейт : 52 бит/сек
ElementCount : 1840
Размер потока : 55,4 Кбайт (0%)
Заголовок : Full
Язык : English
Default : Нет
Forced : Нет

Текст #5
Идентификатор : 9
Формат : UTF-8
Идентификатор кодека : S_TEXT/UTF8
Идентификатор кодека/Информация : UTF-8 Plain Text
Продолжительность : 2 ч. 26 м.
Битрейт : 59 бит/сек
ElementCount : 2141
Размер потока : 64,0 Кбайт (0%)
Заголовок : SDH
Язык : English
Default : Нет
Forced : Нет

Меню
00:00:00.000 : :Chapter 01
00:09:39.412 : :Chapter 02
00:19:30.502 : :Chapter 03
00:28:18.405 : :Chapter 04
00:38:49.368 : :Chapter 05
00:49:20.165 : :Chapter 06
01:00:33.254 : :Chapter 07
01:09:41.510 : :Chapter 08
01:22:36.409 : :Chapter 09
01:30:54.740 : :Chapter 10
01:39:40.683 : :Chapter 11
01:51:02.322 : :Chapter 12
01:59:40.798 : :Chapter 13
02:11:42.853 : :Chapter 14
02:19:07.088 : :Chapter 15

Просьба к переливающим на другие сайты, в оформлении указывайте пожалуйста авторство группы R.G. HD-Films pb.wtf



Скачать Довод через торрент https://c.radikal.ru/c15/2011/f8/d8e9d96511b2.jpg Скачать фильм Довод через торрент бесплантно в хорошем качестве Описание: После теракта в Национальной Опере Украины агент ЦРУ объединяется с британской разведкой, чтобы противостоять русскому олигарху, ... 10 10 6
Торрент: Зарегистрирован [2020-12-30 16:39] · скачан: 194 раз
Статус: √ проверено
Размер: 6.9 GB
Как cкачать? Как скачать Довод через торрент | UTorrent



Последний раз редактировалось: slaventi-69 (2020-12-31 13:56), всего редактировалось 3 раз(а)

28-11-2019 20:33  

Отключить всю рекламу на сайте

30-12-2020 16:45 Довод Скачать торрент  

шлак а не фильмpb.wtf



30-12-2020 20:55 Довод Скачать торрент  

доводpb.wtf



03-01-2021 18:20 Довод Скачать торрент  

Ожидал увидеть нечто стоящее, но увы.pb.wtf



23-01-2021 06:32 Довод Скачать торрент  

Добавлю .......фильм не 60 фпс . возможно программа кодировки дала сбой . Моё мнение ..за что 200 лямов бюджета не пойму ......pb.wtf



23-01-2021 10:34 Довод Скачать торрент  

Sandro23 писал(а):

Добавлю .......фильм не 60 фпс . возможно программа кодировки дала сбой . Моё мнение ..за что 200 лямов бюджета не пойму ......

Обязательно должны быть шлейфы?pb.wtf



    Дорогой пользователь! Огромная просьба, поблагодарите релизера, оцените раздачу и оставьте свои комментарий, если Вы скачали Довод через торрент бесплатно! Внесите свою лепту в развитие PiratBit!
    Комментировать посты могут только пользователи прошедшие не сложную регистрацию
    Показать сообщения:    

    Довод через торрент
    Скачать бесплатно Довод
    Довод скачать торрент
    Довод смотреть онлайн
    Cкачать фильм Довод бесплатно
    Довод скачать торрент в хорошем качестве
    Довод смотреть онлайн бесплатно в хорошем качестве


    Вы не можете начинать темы
    Вы не можете отвечать на сообщения
    Вы не можете редактировать свои сообщения
    Вы не можете удалять свои сообщения
    Вы не можете голосовать в опросах
    Вы не можете прикреплять файлы к сообщениям
    Вы можете скачивать файлы