2 сезон

iTunes

MVO

1

2 сезон

iTunes

iTunes

1 сезон

RePack

30

Ultimate

ВАЖНО

ИГРА 18+

pack

RePack

MK11
pack

Легкие деньги

RePack

jed

RePack

fifa19

RePack

RDR2

RePack

NEED FOR SPEED™ PAYBACK

4 сезон

9 сезон

Бесстыжие 9 сезон

Все сериалы

все сериалы на PB.wtf

RePack

FAR CRY 5

Anonymous, доброй ночи, мы не успеваем собрать деньги на оплату серверов за декабрь и январь, помогите нам пожалуйста в это трудное время. В качестве благодарности мы отключим Вам всю рекламу на сайте (укажите свой ник в строку Ваше имя)!

×
  
Magnet ссылка

Скайлайн 3 / Skylines (Лайам О`Доннелл) [2020, Фантастика, боевик, WEB-DLRip-AVC] [DVO] [FilmPlay] от MediaBit pb.wtf

Скайлайн 3 через торрент pb.wtf

Раздают: 7 [ 18 KB/s ]
Размер: 2.05 GB | Добавлен: 19 д. назад | Торрент скачан:133 раза
Скачать  

30-12-2020 16:56 Скайлайн 3 Скачать торрент  


Скайлайн 3 / Skylines
Информация о фильме:
Название: Скайлайн 3
Оригинальное название: Skylines
Год выхода: 2020
Жанр: Фантастика, боевик
Режиссер: Лайам О`Доннелл

В ролях: Линдси Морган, Джонатан Ховард, Дэниэл Бернхард, Рона Митра, Наоми Танкел, Чарли Юн, Джереми Фицджералд, Иева Андреевайте, Джеймс Космо, Александр Сиддиг, Яян Рухьян, Саманта Жан, Жиэдре Бонд, Пхун Джян

Описание: Через 15 лет после вторжения неизвестный вирус угрожает хрупкому сосуществованию дружественных инопланетных гибридов и людей. Родившаяся на космическом корабле мутант Роуз Корли сама испытывает трудности с управлением огневой рукой, когда на неё выходят члены сопротивления. Они предлагают девушке в составе хорошо подготовленного отряда, куда входит и её брат-инопланетянин Трент, отправиться на вражескую планету и захватить сердечник от разрушенного корабля, который поможет спасти человечество.



Страна: Франция
Студия: Mirabelle Pictures Productions, Artbox, Fasten Films
Продолжительность: 01:53:20
Перевод: Любительский (двухголосый, закадровый) - FilmPlay



Информация о файле:
Кодек: AVC
Формат: MKV
Качество: WEB-DLRip-AVC
Видео: MPEG-4 AVC, 1024x426, 23.976 fps, 1755 kbps
Аудио RU: AC3, 2 ch, 48 kHz, 384 kbps
Аудио EN: AC3, 6 ch, 48 kHz, 448 kbps
Субтитры: Русские (форс. (на инопланетную речь), Full), английские (SDH) + вшитые, неотключемые (на инопланетную речь)
Навигация по главам: Нет

*****НЕТ ОЗВУЧКИ НА ИНОПЛАНЕТНУЮ РЕЧЬ (Субтитры: Русские (форс. (на инопланетную речь)

General
Unique ID : 26676755388223332027192086507235553674 (0x1411C196766DDB7D8B2E266A1BF7B18A)
Complete name : D:uTorrentРипы_от_wolf1245_MediaBitSkylines.2020.WEB-DLRip-AVC_wolf1245_MediaBit.mkv
Format : Matroska
Format version : Version 4
File size : 2.05 GiB
Duration : 1 h 53 min
Overall bit rate : 2 587 kb/s
Movie name : Skylines.2020.WEB-DLRip-AVC_wolf1245_MediaBit
Encoded date : UTC 2020-12-30 16:40:12
Writing application : mkvmerge v51.0.0 ('I Wish') 64-bit
Writing library : libebml v1.4.0 + libmatroska v1.6.2
Video
ID : 1
Format : AVC
Format/Info : Advanced Video Codec
Format profile : High@L4.1
Format settings : CABAC / 12 Ref Frames
Format settings, CABAC : Yes
Format settings, Reference frames : 12 frames
Codec ID : V_MPEG4/ISO/AVC
Duration : 1 h 53 min
Bit rate : 1 755 kb/s
Width : 1 024 pixels
Height : 426 pixels
Display aspect ratio : 2.40:1
Frame rate mode : Constant
Frame rate : 23.976 (24000/1001) FPS
Color space : YUV
Chroma subsampling : 4:2:0
Bit depth : 8 bits
Scan type : Progressive
Bits/(Pixel*Frame) : 0.168
Stream size : 1.39 GiB (68%)
Title : wolf1245_MediaBit
Writing library : x264 core 157 r2958 57baac4
Encoding settings : cabac=1 / ref=12 / deblock=1:-3:-2 / analyse=0x3:0x133 / me=umh / subme=10 / psy=1 / psy_rd=1.00:0.00 / mixed_ref=1 / me_range=48 / chroma_me=1 / trellis=2 / 8x8dct=1 / cqm=0 / deadzone=21,11 / fast_pskip=0 / chroma_qp_offset=-2 / threads=10 / lookahead_threads=2 / sliced_threads=0 / nr=0 / decimate=0 / interlaced=0 / bluray_compat=0 / constrained_intra=0 / bframes=12 / b_pyramid=2 / b_adapt=2 / b_bias=0 / direct=3 / weightb=1 / open_gop=0 / weightp=2 / keyint=240 / keyint_min=24 / scenecut=40 / intra_refresh=0 / rc_lookahead=60 / rc=2pass / mbtree=0 / bitrate=1755 / ratetol=1.0 / qcomp=0.60 / qpmin=0 / qpmax=69 / qpstep=4 / cplxblur=20.0 / qblur=0.5 / vbv_maxrate=50000 / vbv_bufsize=62500 / nal_hrd=none / filler=0 / ip_ratio=1.40 / pb_ratio=1.30 / aq=1:0.80
Language : English
Default : Yes
Forced : No
Color range : Limited
Color primaries : BT.709
Transfer characteristics : BT.709
Matrix coefficients : BT.709
Audio #1
ID : 2
Format : AC-3
Format/Info : Audio Coding 3
Commercial name : Dolby Digital
Codec ID : A_AC3
Duration : 1 h 53 min
Bit rate mode : Constant
Bit rate : 384 kb/s
Channel(s) : 2 channels
Channel layout : L R
Sampling rate : 48.0 kHz
Frame rate : 31.250 FPS (1536 SPF)
Compression mode : Lossy
Stream size : 311 MiB (15%)
Title : DVO | FilmPlay
Language : Russian
Service kind : Complete Main
Default : Yes
Forced : No
Audio #2
ID : 3
Format : AC-3
Format/Info : Audio Coding 3
Commercial name : Dolby Digital
Codec ID : A_AC3
Duration : 1 h 53 min
Bit rate mode : Constant
Bit rate : 448 kb/s
Channel(s) : 6 channels
Channel layout : L R C LFE Ls Rs
Sampling rate : 48.0 kHz
Frame rate : 31.250 FPS (1536 SPF)
Compression mode : Lossy
Stream size : 363 MiB (17%)
Title : ORIGINAL
Language : English
Service kind : Complete Main
Default : No
Forced : No
Text #1
ID : 4
Format : UTF-8
Codec ID : S_TEXT/UTF8
Codec ID/Info : UTF-8 Plain Text
Duration : 1 h 42 min
Bit rate : 9 b/s
Count of elements : 171
Stream size : 6.78 KiB (0%)
Title : Forced
Language : Russian
Default : No
Forced : No
Text #2
ID : 5
Format : UTF-8
Codec ID : S_TEXT/UTF8
Codec ID/Info : UTF-8 Plain Text
Duration : 1 h 44 min
Bit rate : 82 b/s
Count of elements : 1271
Stream size : 62.9 KiB (0%)
Language : Russian
Default : No
Forced : No
Text #3
ID : 6
Format : UTF-8
Codec ID : S_TEXT/UTF8
Codec ID/Info : UTF-8 Plain Text
Duration : 1 h 44 min
Bit rate : 46 b/s
Count of elements : 1271
Stream size : 35.4 KiB (0%)
Title : SDH
Language : English
Default : No
Forced : No
Релиз от: & &
pb.wtf



Скачать Скайлайн 3 через торрент https://i114.fastpic.ru/big/2020/1230/aa/ac275f87a1fd1f0376e0552ef3cd75aa.png Скачать фильм Скайлайн 3 через торрент бесплантно в хорошем качестве Описание: Через 15 лет после вторжения неизвестный вирус угрожает хрупкому сосуществованию дружественных инопланетных гибридов и людей. ... 7.7 10 6
Торрент: Зарегистрирован [2020-12-30 16:56] · скачан: 133 раз
Статус: T временная
Размер: 2.05 GB
Как cкачать? Как скачать Скайлайн 3 через торрент | UTorrent

28-11-2019 20:33  

Отключить всю рекламу на сайте

30-12-2020 17:20 Скайлайн 3 Скачать торрент  

01-01-2021 18:42 Скайлайн 3 Скачать торрент  

Шлак шлаком, не тратьте время(((pb.wtf



02-01-2021 10:03 Скайлайн 3 Скачать торрент  

полная шляпа, держитесь подальше от этой хуеты.pb.wtf



03-01-2021 09:22 Скайлайн 3 Скачать торрент  

первая и вторая вполне норм. этой на 10 мин хватило..pb.wtf



    Дорогой пользователь! Огромная просьба, поблагодарите релизера, оцените раздачу и оставьте свои комментарий, если Вы скачали Скайлайн 3 через торрент бесплатно! Внесите свою лепту в развитие PiratBit!
    Комментировать посты могут только пользователи прошедшие не сложную регистрацию
    Показать сообщения:    

    Скайлайн 3 через торрент
    Скачать бесплатно Скайлайн 3
    Скайлайн 3 скачать торрент
    Скайлайн 3 смотреть онлайн
    Cкачать фильм Скайлайн 3 бесплатно
    Скайлайн 3 скачать торрент в хорошем качестве
    Скайлайн 3 смотреть онлайн бесплатно в хорошем качестве


    Вы не можете начинать темы
    Вы не можете отвечать на сообщения
    Вы не можете редактировать свои сообщения
    Вы не можете удалять свои сообщения
    Вы не можете голосовать в опросах
    Вы не можете прикреплять файлы к сообщениям
    Вы можете скачивать файлы