2 сезон

iTunes

WEBRip

1

2 сезон

iTunes

1 сезон

1 сезон

RePack

30

Ultimate

ВАЖНО

ИГРА 18+

pack

RePack

MK11
pack

Легкие деньги

RePack

jed

RePack

fifa19

RePack

RDR2

RePack

NEED FOR SPEED™ PAYBACK

4 сезон

9 сезон

Бесстыжие 9 сезон

Все сериалы

все сериалы на PB.wtf

RePack

FAR CRY 5

Anonymous, доброе утро, мы не успеваем собрать деньги на оплату серверов за февраль, помогите нам пожалуйста в это трудное время. В качестве благодарности мы отключим Вам всю рекламу на сайте (укажите свой ник в строку Ваше имя)!

×
  
Magnet ссылка

Призрачная шестёрка / Шестеро вне закона / 6 Underground (Майкл Бэй) [2019 г., Боевик, триллер, WEB-DLRip 720p / 60 FPS, Дубляж] от R.G. HD-Films pb.wtf

Призрачная шестёрка через торрент pb.wtf

Раздают: 9 [ 22 KB/s ] Качают: 1 [ 0 KB/s ]
Размер: 3.81 GB | Добавлен: 1 мес. 26 д. назад | Торрент скачан:220 раз
Скачать  

31-12-2020 16:05 Призрачная шестёрка Скачать торрент  

Призрачная шестёрка / Шестеро вне закона / 6 Underground
Год выпуска: 2019
Страна: США
Жанр: Боевик, триллер
Продолжительность: 02:08:52
Перевод: Дубляж
Субтитры: Русские, английские

Режиссер: Майкл Бэй

Бюджет: $150 000 000
Премьера в мире: 10 декабря 2019

rating

В ролях: Райан Рейнольдс, Мелани Лоран, Мануэль Рульфо, Адриа Архона, Кори Хоукинс, Бен Харди, Дэйв Франко, Лайор Раз, Пейман Моаади, Петер Стормаре, Себастьян Роше

Описание: Инсценировав собственную смерть, сознательный миллиардер начинает новую жизнь — набирает отряд наёмников из разных стран, чтобы бороться со злом в этом мире. Все члены команды получают вместо имён цифры, и их целью становится свержение диктатора и освобождение народа страны Тургистан.

Качество: WEB-DLRip 720p / 60 FPS
Формат: MKV
Видео кодек: H.264
Аудио кодек: AC3
Видео: x264, 1280 x 534 ( 2,40:1 ), 3 843 kbps, 60,000 fps, ( 0.094 bpp)
Аудио#1: Русский, AC-3, 48.0 KHz, 6 ch, 384 Kbps DUB (Пифагор)
Релиз от: Автор рипа: slaventi-69
x264 info: frame I:3611 Avg QP:17.60 size: 59541
x264 info: frame P:105164 Avg QP:18.95 size: 23896
x264 info: frame B:355161 Avg QP:19.80 size: 2777
x264 info: consecutive B-frames: 1.8% 3.9% 6.9% 23.5% 26.0% 37.9%


Общее
Уникальный идентификатор : 6036004945300175595146400857386948841 (0x48A7E05337A80E8D7FA535D2C2898E9)
Полное имя : E:\Temp\Заказ\6.Underground.(2019).WEB-DLRip.720p.(60 Fps).mkv
Формат : Matroska
Версия формата : Version 4
Размер файла : 3,81 Гбайт
Продолжительность : 2 ч. 8 м.
Общий поток : 4 231 Кбит/сек
Название фильма : Призрачная шестёрка / Шестеро вне закона / 6 Underground (2019) WEB-DLRip 720p (60 Fps)
Дата кодирования : UTC 2020-12-31 08:58:33
Программа кодирования : mkvmerge v35.0.0 ('All The Love In The World') 64-bit
Библиотека кодирования : libebml v1.3.9 + libmatroska v1.5.2

Видео
Идентификатор : 1
Формат : AVC
Формат/Информация : Advanced Video Codec
Профиль формата : High@L4.1
Настройки формата : CABAC / 9 Ref Frames
Параметр CABAC формата : Да
Параметр RefFrames формата : 9 кадров
Идентификатор кодека : V_MPEG4/ISO/AVC
Продолжительность : 2 ч. 8 м.
Битрейт : 3 843 Кбит/сек
Ширина : 1 280 пикселей
Высота : 534 пикселя
Соотношение сторон : 2,40:1
Режим частоты кадров : Постоянный
Частота кадров : 60,000 кадров/сек
Цветовое пространство : YUV
Субдискретизация насыщенности : 4:2:0
Битовая глубина : 8 бит
Тип развёртки : Прогрессивная
Бит/(Пиксели*Кадры) : 0.094
Размер потока : 3,46 Гбайт (91%)
Заголовок : slaventi-69 ( R.G. HD-Films | 60 fps )
Библиотека кодирования : x264 core 157 r2958 57baac4
Настройки программы : cabac=1 / ref=9 / deblock=1:-1:-1 / analyse=0x3:0x133 / me=umh / subme=9 / psy=1 / psy_rd=1.00:0.00 / mixed_ref=1 / me_range=32 / chroma_me=1 / trellis=2 / 8x8dct=1 / cqm=0 / deadzone=21,11 / fast_pskip=1 / chroma_qp_offset=4 / threads=10 / lookahead_threads=4 / sliced_threads=0 / nr=0 / decimate=1 / interlaced=0 / bluray_compat=0 / constrained_intra=0 / bframes=5 / b_pyramid=2 / b_adapt=2 / b_bias=4 / direct=1 / weightb=1 / open_gop=0 / weightp=2 / keyint=600 / keyint_min=23 / scenecut=40 / intra_refresh=0 / rc_lookahead=0 / rc=crf / mbtree=0 / crf=17.3 / qcomp=0.60 / qpmin=0 / qpmax=69 / qpstep=4 / vbv_maxrate=5800 / vbv_bufsize=4142 / crf_max=0.0 / nal_hrd=none / filler=0 / ip_ratio=1.40 / pb_ratio=1.30 / aq=1:1.00
Язык : English
Default : Да
Forced : Нет

Аудио
Идентификатор : 2
Формат : AC-3
Формат/Информация : Audio Coding 3
Коммерческое название : Dolby Digital
Идентификатор кодека : A_AC3
Продолжительность : 2 ч. 8 м.
Вид битрейта : Постоянный
Битрейт : 384 Кбит/сек
Каналы : 6 каналов
Channel layout : L R C LFE Ls Rs
Частота : 48,0 КГц
Частота кадров : 31,250 кадров/сек (1536 SPF)
Метод сжатия : С потерями
Размер потока : 354 Мбайт (9%)
Заголовок : DUB (Пифагор)
Язык : Russian
Service kind : Complete Main
Default : Да
Forced : Нет

Текст #1
Идентификатор : 3
Формат : UTF-8
Идентификатор кодека : S_TEXT/UTF8
Идентификатор кодека/Информация : UTF-8 Plain Text
Продолжительность : 2 ч. 7 м.
Битрейт : 2 бит/сек
Count of elements : 68
Размер потока : 2,42 Кбайт (0%)
Заголовок : Forced
Язык : Russian
Default : Да
Forced : Нет

Текст #2
Идентификатор : 4
Формат : UTF-8
Идентификатор кодека : S_TEXT/UTF8
Идентификатор кодека/Информация : UTF-8 Plain Text
Продолжительность : 2 ч. 7 м.
Битрейт : 85 бит/сек
Count of elements : 1644
Размер потока : 80,2 Кбайт (0%)
Заголовок : Full
Язык : Russian
Default : Нет
Forced : Нет

Текст #3
Идентификатор : 5
Формат : UTF-8
Идентификатор кодека : S_TEXT/UTF8
Идентификатор кодека/Информация : UTF-8 Plain Text
Продолжительность : 2 ч. 7 м.
Битрейт : 78 бит/сек
Count of elements : 2197
Размер потока : 73,0 Кбайт (0%)
Заголовок : SDH
Язык : English
Default : Нет
Forced : Нет

Просьба к переливающим на другие сайты, в оформлении указывайте пожалуйста авторство группы R.G. HD-Films pb.wtf



Скачать Призрачная шестёрка через торрент http://lostpix.com/thumbs/2019-12/12/s7zm9cdxsczes35xikrb64lxv.png Скачать фильм Призрачная шестёрка через торрент бесплантно в хорошем качестве Описание: Инсценировав собственную смерть, сознательный миллиардер начинает новую жизнь — набирает отряд наёмников из разных стран, чтобы ... 9.4 10 16
Info! Золотая раздача, скачанное не засчитывается.
Торрент: Зарегистрирован [2020-12-31 16:05] · скачан: 220 раз
Статус: √ проверено
Размер: 3.81 GB
Как cкачать? Как скачать Призрачная шестёрка через торрент | UTorrent

28-11-2019 20:33  

Отключить всю рекламу на сайте

31-12-2020 17:16 Призрачная шестёрка Скачать торрент  

Раздача стала золотой благодаря:
FightNight(5000)


Спасибо за Золото. Смотрите в удовольствие.pb.wtf



19-02-2021 05:07 Призрачная шестёрка Скачать торрент  

Нудятинаpb.wtf



22-02-2021 18:33 Призрачная шестёрка Скачать торрент  

Нет 60 фпс в фильме ! Обманка !pb.wtf



22-02-2021 23:16 Призрачная шестёрка Скачать торрент  

Этот фильм не интерполируется на 60FPSpb.wtf



26-02-2021 20:00 Призрачная шестёрка Скачать торрент  

Sandro23 писал(а):

Нет 60 фпс в фильме ! Обманка !

50000 писал(а):

Этот фильм не интерполируется на 60FPS

С чего сделаны такие выводы? Медиа Инфо не то показывает или есть другие предположения.pb.wtf



    Дорогой пользователь! Огромная просьба, поблагодарите релизера, оцените раздачу и оставьте свои комментарий, если Вы скачали Призрачная шестёрка через торрент бесплатно! Внесите свою лепту в развитие PiratBit!
    Комментировать посты могут только пользователи прошедшие не сложную регистрацию
    Показать сообщения:    

    Призрачная шестёрка через торрент
    Скачать бесплатно Призрачная шестёрка
    Призрачная шестёрка скачать торрент
    Призрачная шестёрка смотреть онлайн
    Cкачать фильм Призрачная шестёрка бесплатно
    Призрачная шестёрка скачать торрент в хорошем качестве
    Призрачная шестёрка смотреть онлайн бесплатно в хорошем качестве


    Вы не можете начинать темы
    Вы не можете отвечать на сообщения
    Вы не можете редактировать свои сообщения
    Вы не можете удалять свои сообщения
    Вы не можете голосовать в опросах
    Вы не можете прикреплять файлы к сообщениям
    Вы можете скачивать файлы