2 сезон

iTunes

MVO

1

2 сезон

iTunes

iTunes

1 сезон

RePack

30

Новинка

ВАЖНО

ИГРА 18+

pack

RePack

MK11
pack

Легкие деньги

RePack

jed

RePack

fifa19

RePack

RDR2

RePack

NEED FOR SPEED™ PAYBACK

4 сезон

9 сезон

Бесстыжие 9 сезон

Все сериалы

все сериалы на PB.wtf

RePack

FAR CRY 5

Anonymous, доброй ночи, мы не успеваем собрать деньги на оплату серверов за декабрь и январь, помогите нам пожалуйста в это трудное время. В качестве благодарности мы отключим Вам всю рекламу на сайте (укажите свой ник в строку Ваше имя)!

×
  
Magnet ссылка

Мегаполис: секреты древнего мира / Megapolis: The Ancient World Revealed / Серии: 1-4 из 4 (Fabrice Hourlier) [2020, Документальнй, история, HDTVRip 720p] [VO] (SDI Media) pb.wtf

Мегаполис: секреты древнего мира через торрент pb.wtf

Размер: 6.26 GB | Добавлен: 17 д. назад | Торрент скачан:36 раз
Скачать  

01-01-2021 16:53 Мегаполис: секреты древнего мира Скачать торрент  

Мегаполис: секреты древнего мира / Megapolis: The Ancient World Revealed

Год выпуска: 2020
Страна: Франция
Студия: Indigenes Productions, RMC Decouverte
Жанр: Документальнй, история
Продолжительность: 4 x ~ 00:52:49
Перевод: Студийный (одноголосый закадровый) SDI Media

Режиссер: Fabrice Hourlier / Фабрис Уорлье

Описание: Афины, Александрия, Тикаль и Рим: эти легендарные города являются одними из самых известных в мире археологических памятников. И все же они до сих пор не раскрыли всех своих секретов. Построенные как храмы знаний, эти необычные города были бьющимся сердцем древнего мира. Сочетая потрясающие реконструкции с современными кадрами останков этих мест, а также с участием известных экспертов, сериал проливает новый свет на эти архитектурные сокровища и потерянные цивилизации, которые заложили основы нашего современного мира.

Сэмпл: https://www.sendspace.com/file/gr5f93

Тип релиза: HDTVRip 720p
Контейнер: MKV

Видео: 1280x720 (16:9), 25 fps, AVC (x264), High@L4,1, 4000 kbps avg, 0.174 bit/pixel
Аудио: Русский 48 kHz, AC3 Dolby Digital, 2/0 (L,R) ch, ~160.00 kbps avg
Аудио 2: Английский 48 kHz, AC3 Dolby Digital, 2/0 (L,R) ch, ~128.00 kbps avg
Complete name               : F:\Наладки\Мегаполис_секреты древнего мира\01. Афины_720р.mkv
Format : Matroska
Format version : Version 4 / Version 2
File size : 1.58 GiB
Duration : 52 min 49 s
Overall bit rate : 4 288 kb/s
Encoded date : UTC 2021-01-01 15:37:27
Writing application : mkvmerge v6.6.0 ('The Edge Of The In Between') built on Dec 1 2013 17:55:00
Writing library : libebml v1.3.0 + libmatroska v1.4.1

Video
ID : 1
Format : AVC
Format/Info : Advanced Video Codec
Format profile : High@L4.1
Format settings : CABAC / 9 Ref Frames
Format settings, CABAC : Yes
Format settings, RefFrames : 9 frames
Codec ID : V_MPEG4/ISO/AVC
Duration : 52 min 49 s
Bit rate : 4 000 kb/s
Width : 1 280 pixels
Height : 720 pixels
Display aspect ratio : 16:9
Frame rate mode : Constant
Frame rate : 25.000 FPS
Color space : YUV
Chroma subsampling : 4:2:0
Bit depth : 8 bits
Scan type : Progressive
Bits/(Pixel*Frame) : 0.174
Stream size : 1.44 GiB (91%)
Writing library : x264 core 148 r2638 7599210
Encoding settings : cabac=1 / ref=9 / deblock=1:-3:-3 / analyse=0x3:0x113 / me=umh / subme=10 / psy=1 / psy_rd=1.00:0.15 / mixed_ref=1 / me_range=32 / chroma_me=1 / trellis=2 / 8x8dct=1 / cqm=0 / deadzone=21,11 / fast_pskip=1 / chroma_qp_offset=-1 / threads=18 / lookahead_threads=3 / sliced_threads=0 / nr=0 / decimate=1 / interlaced=0 / bluray_compat=0 / constrained_intra=0 / bframes=9 / b_pyramid=2 / b_adapt=2 / b_bias=0 / direct=3 / weightb=1 / open_gop=1 / weightp=2 / keyint=250 / keyint_min=25 / scenecut=40 / intra_refresh=0 / rc_lookahead=60 / rc=2pass / mbtree=1 / bitrate=4000 / ratetol=1.0 / qcomp=0.60 / qpmin=0 / qpmax=69 / qpstep=4 / cplxblur=20.0 / qblur=0.5 / vbv_maxrate=14000 / vbv_bufsize=14000 / nal_hrd=none / filler=0 / ip_ratio=1.40 / aq=1:1.00
Default : Yes
Forced : No

Audio #1
ID : 2
Format : AC-3
Format/Info : Audio Coding 3
Format settings, Endianness : Big
Codec ID : A_AC3
Duration : 52 min 49 s
Bit rate mode : Constant
Bit rate : 160 kb/s
Channel(s) : 2 channels
Channel positions : Front: L R
Sampling rate : 48.0 kHz
Frame rate : 31.250 FPS (1536 SPF)
Bit depth : 16 bits
Compression mode : Lossy
Stream size : 60.5 MiB (4%)
Language : Russian
Service kind : Complete Main
Default : Yes
Forced : Yes

Audio #2
ID : 3
Format : AC-3
Format/Info : Audio Coding 3
Format settings, Endianness : Big
Codec ID : A_AC3
Duration : 52 min 49 s
Bit rate mode : Constant
Bit rate : 128 kb/s
Channel(s) : 2 channels
Channel positions : Front: L R
Sampling rate : 48.0 kHz
Frame rate : 31.250 FPS (1536 SPF)
Bit depth : 16 bits
Compression mode : Lossy
Stream size : 48.4 MiB (3%)
Language : English
Service kind : Complete Main
Default : No
Forced : No

Complete name : F:\Наладки\Мегаполис_секреты древнего мира\04. Рим_720р.mkv
Format : Matroska
Format version : Version 4 / Version 2
File size : 1.57 GiB
Duration : 52 min 13 s
Overall bit rate : 4 290 kb/s
Encoded date : UTC 2021-01-01 15:48:52
Writing application : mkvmerge v6.6.0 ('The Edge Of The In Between') built on Dec 1 2013 17:55:00
Writing library : libebml v1.3.0 + libmatroska v1.4.1

Video
ID : 1
Format : AVC
Format/Info : Advanced Video Codec
Format profile : High@L4.1
Format settings : CABAC / 9 Ref Frames
Format settings, CABAC : Yes
Format settings, RefFrames : 9 frames
Codec ID : V_MPEG4/ISO/AVC
Duration : 52 min 13 s
Bit rate : 4 000 kb/s
Width : 1 280 pixels
Height : 720 pixels
Display aspect ratio : 16:9
Frame rate mode : Constant
Frame rate : 25.000 FPS
Color space : YUV
Chroma subsampling : 4:2:0
Bit depth : 8 bits
Scan type : Progressive
Bits/(Pixel*Frame) : 0.174
Stream size : 1.43 GiB (91%)
Writing library : x264 core 148 r2638 7599210
Encoding settings : cabac=1 / ref=9 / deblock=1:-3:-3 / analyse=0x3:0x113 / me=umh / subme=10 / psy=1 / psy_rd=1.00:0.15 / mixed_ref=1 / me_range=32 / chroma_me=1 / trellis=2 / 8x8dct=1 / cqm=0 / deadzone=21,11 / fast_pskip=1 / chroma_qp_offset=-1 / threads=18 / lookahead_threads=3 / sliced_threads=0 / nr=0 / decimate=1 / interlaced=0 / bluray_compat=0 / constrained_intra=0 / bframes=9 / b_pyramid=2 / b_adapt=2 / b_bias=0 / direct=3 / weightb=1 / open_gop=1 / weightp=2 / keyint=250 / keyint_min=25 / scenecut=40 / intra_refresh=0 / rc_lookahead=60 / rc=2pass / mbtree=1 / bitrate=4000 / ratetol=1.0 / qcomp=0.60 / qpmin=0 / qpmax=69 / qpstep=4 / cplxblur=20.0 / qblur=0.5 / vbv_maxrate=14000 / vbv_bufsize=14000 / nal_hrd=none / filler=0 / ip_ratio=1.40 / aq=1:1.00
Default : Yes
Forced : No

Audio #1
ID : 2
Format : AC-3
Format/Info : Audio Coding 3
Format settings, Endianness : Big
Codec ID : A_AC3
Duration : 52 min 13 s
Bit rate mode : Constant
Bit rate : 160 kb/s
Channel(s) : 2 channels
Channel positions : Front: L R
Sampling rate : 48.0 kHz
Frame rate : 31.250 FPS (1536 SPF)
Bit depth : 16 bits
Compression mode : Lossy
Stream size : 59.8 MiB (4%)
Language : Russian
Service kind : Complete Main
Default : Yes
Forced : Yes

Audio #2
ID : 3
Format : AC-3
Format/Info : Audio Coding 3
Format settings, Endianness : Big
Codec ID : A_AC3
Duration : 52 min 13 s
Bit rate mode : Constant
Bit rate : 128 kb/s
Channel(s) : 2 channels
Channel positions : Front: L R
Sampling rate : 48.0 kHz
Frame rate : 31.250 FPS (1536 SPF)
Bit depth : 16 bits
Compression mode : Lossy
Stream size : 47.8 MiB (3%)
Language : English
Service kind : Complete Main
Default : No
Forced : No
01. Афины / Athens
Афины, в начале бывшие небольшой деревней, к 3000 году до н.э. были заброшены, но к V веку до н.э. превратились в один из величайших городов древнего мира.
02. Александрия / Alexandria
IV век до н.э.: Александр Великий решает превратить рыбацкую деревню в самый ослепительный город древнего мира. Насладитесь реконструкцией города и его удивительных зданий.
03. Тикаль / Tikal
Откройте для себя майянский город Тикаль. Город, воссозданный с помощью компьютерной графики, был населен более тысячи лет и насчитывает до 12000 строений и двух миллионов жителей.
04. Рим / Rome
Рим: величайший город древнего мира. Мы раскрываем тайны архитектуры Рима и удивительные таланты его строителей. Вас ждут Пантеон, дворец императора Нерона и Колизей.
скриншот  скриншот  скриншот  
pb.wtf



Скачать Мегаполис: секреты древнего мира через торрент https://i114.fastpic.ru/big/2021/0101/25/55eb0604af795525b7c753d18fa53625.jpg Скачать фильм Мегаполис: секреты древнего мира через торрент бесплантно в хорошем качестве Описание: Афины, Александрия, Тикаль и Рим: эти легендарные города являются одними из самых известных в мире археологических памятников. И ... 7.7 10 3
Торрент: Зарегистрирован [2021-01-01 16:53] · скачан: 36 раз
Статус: √ проверено
Размер: 6.26 GB
Как cкачать? Как скачать Мегаполис: секреты древнего мира через торрент | UTorrent

28-11-2019 20:33  

Отключить всю рекламу на сайте


    Дорогой пользователь! Огромная просьба, поблагодарите релизера, оцените раздачу и оставьте свои комментарий, если Вы скачали Мегаполис: секреты древнего мира через торрент бесплатно! Внесите свою лепту в развитие PiratBit!
    Комментировать посты могут только пользователи прошедшие не сложную регистрацию
    Показать сообщения:    

    Мегаполис: секреты древнего мира через торрент
    Скачать бесплатно Мегаполис: секреты древнего мира
    Мегаполис: секреты древнего мира скачать торрент
    Мегаполис: секреты древнего мира смотреть онлайн
    Cкачать фильм Мегаполис: секреты древнего мира бесплатно
    Мегаполис: секреты древнего мира скачать торрент в хорошем качестве
    Мегаполис: секреты древнего мира смотреть онлайн бесплатно в хорошем качестве


    Вы не можете начинать темы
    Вы не можете отвечать на сообщения
    Вы не можете редактировать свои сообщения
    Вы не можете удалять свои сообщения
    Вы не можете голосовать в опросах
    Вы не можете прикреплять файлы к сообщениям
    Вы можете скачивать файлы