Anonymous, добрый день, присоединяйтесь к нам в Telegram!, здесь всегда актуальный адрес сайта, оперативная поддержка и многое другое!

>

5.5

iTunes

7.4

iTunes

7.9

iTunes

1

7.7

1 сезон

6.8

iTunes

7.3

1 сезон

13

6.7

1 сезон

8.3

RePack

30

ULTIMATE

pack

9.9

Лицензия

ВАЖНО

ИГРА 18+

pack

7.3

RePack

MK11

7.7

RePack

jed

7.8

RePack

fifa19

8.5

RePack

RDR2

RePack

NEED FOR SPEED™ PAYBACK

4 сезон

9 сезон

Бесстыжие 9 сезон

Все сериалы

все сериалы на PB.wtf

RePack

FAR CRY 5

Anonymous, добрый день, мы катастрофически не успеваем собрать деньги на оплату серверов, помогите нам пожалуйста 5,10,15р., для нас важна любая помощь . В качестве благодарности мы отключим Вам всю рекламу на сайте (укажите свой ник в строку Ваше имя)!

×
  
Magnet ссылка

СашаТаня / Сезон: 10 / Серии: 1-22 из 40 (Михаил Старчак, Андрей Богатырев, Александр Потапов) [2021, Комедия, WEBRip 1080p] pb.wtf

СашаТаня через торрент pb.wtf

Раздают: 2 [ 24 KB/s ] Качают: 2 [ 0 KB/s ]
Размер: 16.46 GB | Добавлен: 12 д. назад | Торрент скачан:17 раз
Смотреть онлайн СашаТаня | Скачать    Ребята, помогите собрать деньги на оплату серверов!!!

02-01-2021 17:43 СашаТаня Скачать торрент  

СашаТаня
Год выпуска: 2021
Страна: Россия
Производство: Comedy Club Production
Жанр: Комедия
Продолжительность: ~ 00:24:00
Перевод: Не требуется
Субтитры: отсутствуют

Режиссер: Михаил Старчак, Андрей Богатырев, Александр Потапов (IV)



В ролях: Андрей Гайдулян, Валентина Рубцова, Алексей Климушкин, Андрей Свиридов, Алексей Лемар, Лариса Баранова (II), Арарат Кещян, Павел Кассинский, Алина Ланина, Сергей Рудзевич, Татьяна Орлова, Олег Новиков (II), Андрей Лебедев, Ксения Хаирова, Виталий Гогунский, Сергей Мурзин, Михаил Полосухин, Веста Буркот, Александра Булычёва, Ёлка, Григорий Адаменко, Александр Корженков, Евгения Брагина, Александр Берлин (II), Олеся Галькевич, Михаил Солодовник, Ираида Краснопольская, Дмитрий Лямочкин, Марина Барсукова, Сергей Балашов (III), Николай Стародубцев, Владимир Витан, Максим Голополосов, Надежда Азоркина, Виктория Герасимова, Яна Чигир, Владимир Епифанцев

Описание: Ситком «САШАТАНЯ» разменял уже третью сотню эпизодов, но по прежнему герои поднимают актуальные семейные проблемы! В новых сериях Сергеевы вместе с сыном Алешкой пойдут первый раз в первый класс. Постигать школьную программу, как и положено, предстоит его родителям, поэтому Саша и Таня снова засядут за тетради и учебники. Сильвестр Андреевич будет изо всех сил стараться вернуться обратно в ТОП-100 богатеев страны. Сильно пошатнувшееся здоровье, как ни странно, сыграет ему на руку. На деньги, полученные по страховке, он организует алкогольный завод. Правда, есть в его бизнес-плане несколько серьезных просчетов, которые могут обернуться реальным крахом. Лучшие друзья Сергеевых Лиля и Миша раскроют свою очень интимную тайну, а вечная студентка Катя снова будет искать приключения на свою зачетку и проживет несколько дней в шкафу у Сашиного босса.

Качество: WEBRip 1080p
Формат: MKV

Видео: MPEG-4 AVC, ~ 4500 Кбит/с, 1920x1072
Аудио: 48.0 kHz, AC3 Dolby Digital, 2/0 (L,R) ch, ~ 192 kbps
скриншот  скриншот  скриншот  скриншот  

Общее
Уникальный идентификатор : 250365261960928190807995293541954606996 (0xBC5A9872FB77D1D4AD255BE6C66DD794)
Полное имя : C:\SashaTanya.S06.2020.WEB-DL.(1080p).Getty\SashaTanya.s06e01.2020.WEB-DL.(1080p).Getty.mkv
Формат : Matroska
Версия формата : Version 4 / Version 2
Размер файла : 741 Мбайт
Продолжительность : 22 м. 7 с.
Режим общего битрейта : Переменный
Общий поток : 4679 Кбит/сек
Название фильма : SashaTanya.s06e01.2020.WEB-DL.(1080p).Getty
Дата кодирования : UTC 2021-01-02 17:34:56
Программа кодирования : mkvmerge v7.8.0 ('River Man') 32bit built on Mar 27 2015 16:18:02
Библиотека кодирования : libebml v1.3.1 + libmatroska v1.4.2

Видео
Идентификатор : 1
Формат : AVC
Формат/Информация : Advanced Video Codec
Профиль формата : High@L4
Параметр CABAC формата : Да
Параметр RefFrames формата : 1 кадр
Идентификатор кодека : V_MPEG4/ISO/AVC
Продолжительность : 22 м. 7 с.
Вид битрейта : Переменный
Битрейт : 4494 Кбит/сек
Максимальный битрейт : 4500 Кбит/сек
Ширина : 1920 пикселей
Высота : 1072 пикселя
Соотношение сторон : 16:9
Режим частоты кадров : Постоянный
Частота кадров : 25,000 кадров/сек
Цветовое пространство : YUV
Субдискретизация насыщенности : 4:2:0
Битовая глубина : 8 бит
Тип развёртки : Прогрессивная
Бит/(Пиксели*Кадры) : 0.085
Размер потока : 696 Мбайт (94%)
Default : Да
Forced : Нет

Аудио
Идентификатор : 2
Формат : AC-3
Формат/Информация : Audio Coding 3
Расширение режима : CM (complete main)
Параметр Endianness формата : Big
Идентификатор кодека : A_AC3
Продолжительность : 22 м. 7 с.
Вид битрейта : Постоянный
Битрейт : 192 Кбит/сек
Каналы : 2 канала
Расположение каналов : Front: L R
Частота : 48,0 КГц
Частота кадров : 31,250 кадров/сек (1536 spf)
Метод сжатия : С потерями
Размер потока : 30,4 Мбайт (4%)
Default : Да
Forced : Нет

Когда раздача ведётся путём добавления новых серий, при каждом добавлении создётся новый торрент. Чтобы начать докачку новой серии, пользователям необходимо сделать следующее:
(1) остановить скачивание,
(2) удалить старый торрент у себя из клиента (старые серии удалять не надо),
(3) скачать новый торрент и запустить его у себя в клиенте вместо старого, при этом указать клиенту путь в старую папку, куда и должно происходить скачивание новых серий.
Ваш клиент при этом должен произвести хеширование (проверку) старой папки (если не производит сам - помогите ему сделать это), и будет докачивать только те серии, которых у вас ещё нет. Старые серии при этом не удаляются, а продолжают раздаваться!
Eсли вы уже удалили старые серии, то предотвратить повторную закачку старых серий можно, отжав галочку в соответсвующих местах при запуске нового торрента. По возможности, желательно не удалять старые серии как можно дольше, чтобы релизёр не столько продолжал раздавать старые серии, а смог сконцентрироваться на новых.

pb.wtf



Скачать СашаТаня через торрент https://b.radikal.ru/b21/2101/0e/f7e44126106c.png Скачать, смотреть онлайн СашаТаня бесплантно в хорошем качестве Описание: Ситком «САШАТАНЯ» разменял уже третью сотню эпизодов, но по прежнему герои поднимают актуальные семейные проблемы! В новых сериях ... 8.7 10 7
Торрент: Зарегистрирован [2021-10-12 09:34] · скачан: 17 раз
Статус: √ проверено
Размер: 16.46 GB
Как cкачать? Как скачать СашаТаня через торрент | UTorrent

28-11-2019 20:33  

Отключить всю рекламу на сайте

12-10-2021 15:40 СашаТаня Скачать торрент  

Так чему верить, какой сезон? В шапке написано 10-ый, в названии файлов 6-ой.pb.wtf



17-10-2021 09:16 СашаТаня Скачать торрент  

накуя старье впариваете(((pb.wtf



    Дорогой пользователь! Огромная просьба, поблагодарите релизера, оцените раздачу и оставьте свои комментарий, если Вы скачали СашаТаня через торрент бесплатно!
    Комментировать посты могут только пользователи прошедшие не сложную регистрацию
    Показать сообщения:    

    СашаТаня через торрент
    Скачать бесплатно СашаТаня
    СашаТаня скачать торрент
    СашаТаня смотреть онлайн
    Cкачать фильм СашаТаня бесплатно
    СашаТаня скачать торрент в хорошем качестве
    СашаТаня смотреть онлайн бесплатно в хорошем качестве


    Вы не можете начинать темы
    Вы не можете отвечать на сообщения
    Вы не можете редактировать свои сообщения
    Вы не можете удалять свои сообщения
    Вы не можете голосовать в опросах
    Вы не можете прикреплять файлы к сообщениям
    Вы можете скачивать файлы