Anonymous, добрый день, присоединяйтесь к нам в Telegram!, здесь всегда актуальный адрес сайта, оперативная поддержка и многое другое!

>

5.5

iTunes

7.4

iTunes

7.9

iTunes

1

7.7

1 сезон

6.8

iTunes

7.3

1 сезон

13

6.7

1 сезон

8.3

RePack

30

ULTIMATE

pack

9.9

Лицензия

ВАЖНО

ИГРА 18+

pack

7.3

RePack

MK11

7.7

RePack

jed

7.8

RePack

fifa19

8.5

RePack

RDR2

RePack

NEED FOR SPEED™ PAYBACK

4 сезон

9 сезон

Бесстыжие 9 сезон

Все сериалы

все сериалы на PB.wtf

RePack

FAR CRY 5

Anonymous, добрый день, мы катастрофически не успеваем собрать деньги на оплату серверов, помогите нам пожалуйста 5,10,15р., для нас важна любая помощь . В качестве благодарности мы отключим Вам всю рекламу на сайте (укажите свой ник в строку Ваше имя)!

×
  
Magnet ссылка

СашаТаня / Сезон: 10 / Серии: 1-22 из 22 (Михаил Старчак, Андрей Богатырев, Александр Потапов) [2021, Комедия, HDTV 1080i] pb.wtf

СашаТаня через торрент pb.wtf

Размер: 22.33 GB | Добавлен: 8 мес. назад | Торрент скачан:17 раз
Смотреть онлайн СашаТаня | Скачать    Ребята, помогите собрать деньги на оплату серверов!!!

02-01-2021 18:55 СашаТаня Скачать торрент  

СашаТаня
Год выпуска: 2021
Страна: Россия
Производство: Comedy Club Production
Жанр: Комедия
Продолжительность: ~ 00:24:00
Перевод: Не требуется
Субтитры: отсутствуют

Режиссер: Михаил Старчак, Андрей Богатырев, Александр Потапов (IV)



В ролях: Андрей Гайдулян, Валентина Рубцова, Алексей Климушкин, Андрей Свиридов, Алексей Лемар, Лариса Баранова (II), Арарат Кещян, Павел Кассинский, Алина Ланина, Сергей Рудзевич, Татьяна Орлова, Олег Новиков (II), Андрей Лебедев, Ксения Хаирова, Виталий Гогунский, Сергей Мурзин, Михаил Полосухин, Веста Буркот, Александра Булычёва, Ёлка, Григорий Адаменко, Александр Корженков, Евгения Брагина, Александр Берлин (II), Олеся Галькевич, Михаил Солодовник, Ираида Краснопольская, Дмитрий Лямочкин, Марина Барсукова, Сергей Балашов (III), Николай Стародубцев, Владимир Витан, Максим Голополосов, Надежда Азоркина, Виктория Герасимова, Яна Чигир, Владимир Епифанцев

Описание: Ситком «САШАТАНЯ» разменял уже третью сотню эпизодов, но по прежнему герои поднимают актуальные семейные проблемы! В новых сериях Сергеевы вместе с сыном Алешкой пойдут первый раз в первый класс. Постигать школьную программу, как и положено, предстоит его родителям, поэтому Саша и Таня снова засядут за тетради и учебники. Сильвестр Андреевич будет изо всех сил стараться вернуться обратно в ТОП-100 богатеев страны. Сильно пошатнувшееся здоровье, как ни странно, сыграет ему на руку. На деньги, полученные по страховке, он организует алкогольный завод. Правда, есть в его бизнес-плане несколько серьезных просчетов, которые могут обернуться реальным крахом. Лучшие друзья Сергеевых Лиля и Миша раскроют свою очень интимную тайну, а вечная студентка Катя снова будет искать приключения на свою зачетку и проживет несколько дней в шкафу у Сашиного босса.

Качество: HDTV 1080i
Формат: TS

Видео: 1920х1080 (16:9), 25 fps, AVC MPEG-4 (x264), High@L4.0 ~ 6000 kbps avg, 0.182 bit/pixel
Аудио: 48 kHz, MPEG Layer 2, 2 ch, ~ 192 kbps avg
скриншот  скриншот  скриншот  скриншот  

скриншот  скриншот  скриншот  скриншот  

Общее
Идентификатор : 1 (0x1)
Полное имя : C:\SashaTanya.S10.2020.HDTV.(1080i).ExKinoRay\SashaTanya.S10.E01.2020.HDTV.(1080i).ExKinoRay.ts
Формат : MPEG-TS
Размер файла : 1,03 Гбайт
Продолжительность : 22 м. 32 с.
Режим общего битрейта : Переменный
Общий поток : 6564 Кбит/сек

Видео
Идентификатор : 100 (0x64)
Идентификатор меню : 1 (0x1)
Формат : AVC
Формат/Информация : Advanced Video Codec
Профиль формата : High@L4
Параметр CABAC формата : Да
Параметр RefFrames формата : 4 кадра
Идентификатор кодека : 27
Продолжительность : 22 м. 32 с.
Битрейт : 6046 Кбит/сек
Ширина : 1920 пикселей
Высота : 1080 пикселей
Соотношение сторон : 16:9
Частота кадров : 25,000 кадров/сек
Стандарт вещания : Component
Цветовое пространство : YUV
Субдискретизация насыщенности : 4:2:0
Битовая глубина : 8 бит
Тип развёртки : Чересстрочная
Метод сохранения типа развёртки : Раздельные поля
Порядок развёртки : Верхнее поле первое
Бит/(Пиксели*Кадры) : 0.117
Размер потока : 975 Мбайт (92%)
Цветовой диапазон : Limited
Основные цвета : BT.709
Характеристики трансфера : BT.709
Коэффициенты матрицы : BT.709

Аудио
Идентификатор : 200 (0xC8)
Идентификатор меню : 1 (0x1)
Формат : MPEG Audio
Версия формата : Version 1
Профиль формата : Layer 2
Идентификатор кодека : 3
Продолжительность : 22 м. 32 с.
Вид битрейта : Постоянный
Битрейт : 192 Кбит/сек
Каналы : 2 канала
Частота : 48,0 КГц
Метод сжатия : С потерями
Размер потока : 30,9 Мбайт (3%)
Язык : Russia

Когда раздача ведётся путём добавления новых серий, при каждом добавлении создётся новый торрент. Чтобы начать докачку новой серии, пользователям необходимо сделать следующее:
(1) остановить скачивание,
(2) удалить старый торрент у себя из клиента (старые серии удалять не надо),
(3) скачать новый торрент и запустить его у себя в клиенте вместо старого, при этом указать клиенту путь в старую папку, куда и должно происходить скачивание новых серий.
Ваш клиент при этом должен произвести хеширование (проверку) старой папки (если не производит сам - помогите ему сделать это), и будет докачивать только те серии, которых у вас ещё нет. Старые серии при этом не удаляются, а продолжают раздаваться!
Eсли вы уже удалили старые серии, то предотвратить повторную закачку старых серий можно, отжав галочку в соответсвующих местах при запуске нового торрента. По возможности, желательно не удалять старые серии как можно дольше, чтобы релизёр не столько продолжал раздавать старые серии, а смог сконцентрироваться на новых.

pb.wtf



Скачать СашаТаня через торрент https://b.radikal.ru/b21/2101/0e/f7e44126106c.png Скачать, смотреть онлайн СашаТаня бесплантно в хорошем качестве Описание: Ситком «САШАТАНЯ» разменял уже третью сотню эпизодов, но по прежнему герои поднимают актуальные семейные проблемы! В новых сериях ... 8.9 10 8
Торрент: Зарегистрирован [2021-01-28 18:46] · скачан: 17 раз
Статус: √ проверено
Размер: 22.33 GB
Как cкачать? Как скачать СашаТаня через торрент | UTorrent

% Раздел Тема Автор DL S | L
TNT serials [ 16.46 GB ] СашаТаня / Сезон: 10 / Серии: 1-22 из 40 [2021 WEBRip 1080p] bober100 Скачать
3 | 2
TNT serials [ 11.2 GB ] СашаТаня / Сезон: 10 / Серии: 1-22 из 22 [2021 WEBRip 720p] bober100 Скачать
3 | 0
TNT serials [ 6.45 GB ] СашаТаня / Сезон: 10 / Серии: 1-22 из 22 [2021 WEBRip] bober100 Скачать
4 | 0
TNT serials [ 6.68 GB ] СашаТаня / Сезон: 10 / Серии: 1-22 из 22 [2021 SATRip] bober100 Скачать
3 | 0

28-11-2019 20:33  

Отключить всю рекламу на сайте

    Дорогой пользователь! Огромная просьба, поблагодарите релизера, оцените раздачу и оставьте свои комментарий, если Вы скачали СашаТаня через торрент бесплатно!
    Комментировать посты могут только пользователи прошедшие не сложную регистрацию
    Показать сообщения:    

    СашаТаня через торрент
    Скачать бесплатно СашаТаня
    СашаТаня скачать торрент
    СашаТаня смотреть онлайн
    Cкачать фильм СашаТаня бесплатно
    СашаТаня скачать торрент в хорошем качестве
    СашаТаня смотреть онлайн бесплатно в хорошем качестве


    Вы не можете начинать темы
    Вы не можете отвечать на сообщения
    Вы не можете редактировать свои сообщения
    Вы не можете удалять свои сообщения
    Вы не можете голосовать в опросах
    Вы не можете прикреплять файлы к сообщениям
    Вы можете скачивать файлы