Anonymous, доброй ночи, присоединяйтесь к нам в Telegram!, здесь всегда актуальный адрес сайта, оперативная поддержка и многое другое!

>

5.6

iTunes

7.4

iTunes

7.9

MVO

1

7.7

1 сезон

6.8

iTunes

7.3

1 сезон

13

6.7

1 сезон

8.3

RePack

30

PREMIUM

pack

9.9

Лицензия

ВАЖНО

ИГРА 18+

pack

7.3

RePack

MK11

7.7

RePack

jed

7.8

RePack

fifa19

8.5

RePack

RDR2

RePack

NEED FOR SPEED™ PAYBACK

4 сезон

9 сезон

Бесстыжие 9 сезон

Все сериалы

все сериалы на PB.wtf

RePack

FAR CRY 5

Anonymous, доброй ночи, мы катастрофически не успеваем собрать деньги на оплату серверов, помогите нам пожалуйста 5,10,15р., для нас важна любая помощь . В качестве благодарности мы отключим Вам всю рекламу на сайте (укажите свой ник в строку Ваше имя)!

×
  
Magnet ссылка

СашаТаня / Сезон: 10 / Серии: 1-26 из 40 (Михаил Старчак, Андрей Богатырев, Александр Потапов) [2021, Комедия, WEBRip-AVC] pb.wtf

СашаТаня через торрент pb.wtf

Раздают: 4 [ 0 KB/s ] Качают: 1 [ 0 KB/s ]
Размер: 7.48 GB | Добавлен: 8 д. назад | Торрент скачан:21 раз
Смотреть онлайн СашаТаня | Скачать    Ребята, помогите собрать деньги на оплату серверов!!!

02-01-2021 21:01 СашаТаня Скачать торрент  

СашаТаня 10
Год выпуска: 2021
Страна: Россия
Производство: Comedy Club Production
Жанр: Комедия
Продолжительность: ~ 00:24:00
Перевод: Не требуется
Субтитры: отсутствуют

Режиссер: Михаил Старчак, Андрей Богатырев, Александр Потапов (IV)



В ролях: Андрей Гайдулян, Валентина Рубцова, Алексей Климушкин, Андрей Свиридов, Алексей Лемар, Лариса Баранова (II), Арарат Кещян, Павел Кассинский, Алина Ланина, Сергей Рудзевич, Татьяна Орлова, Олег Новиков (II), Андрей Лебедев, Ксения Хаирова, Виталий Гогунский, Сергей Мурзин, Михаил Полосухин, Веста Буркот, Александра Булычёва, Ёлка, Григорий Адаменко, Александр Корженков, Евгения Брагина, Александр Берлин (II), Олеся Галькевич, Михаил Солодовник, Ираида Краснопольская, Дмитрий Лямочкин, Марина Барсукова, Сергей Балашов (III), Николай Стародубцев, Владимир Витан, Максим Голополосов, Надежда Азоркина, Виктория Герасимова, Яна Чигир, Владимир Епифанцев

Описание: Ситком «САШАТАНЯ» разменял уже третью сотню эпизодов, но по прежнему герои поднимают актуальные семейные проблемы! В новых сериях Сергеевы вместе с сыном Алешкой пойдут первый раз в первый класс. Постигать школьную программу, как и положено, предстоит его родителям, поэтому Саша и Таня снова засядут за тетради и учебники. Сильвестр Андреевич будет изо всех сил стараться вернуться обратно в ТОП-100 богатеев страны. Сильно пошатнувшееся здоровье, как ни странно, сыграет ему на руку. На деньги, полученные по страховке, он организует алкогольный завод. Правда, есть в его бизнес-плане несколько серьезных просчетов, которые могут обернуться реальным крахом. Лучшие друзья Сергеевых Лиля и Миша раскроют свою очень интимную тайну, а вечная студентка Катя снова будет искать приключения на свою зачетку и проживет несколько дней в шкафу у Сашиного босса.

Качество: WEBRip-AVC
Формат: MKV

Видео: MPEG-4 AVC, ~ 1600 Кбит/с, 1024x576, 25 кадр/с
Аудио: 48.0 kHz, AC3 Dolby Digital, 2/0 (L,R) ch, ~ 192 kbps
скриншот  скриншот  скриншот  скриншот  скриншот  

General
Unique ID : 209341865711666635942051419639739853691 (0x9D7DC6DAF9B21196BC5151066C042B7B)
Complete name : F:\СашаТаня.S10.(2020).WEBRip.(AVC).Files-x\01.SashaTanya.s10.(2020).WEBRip.(AVC).by.Серый1779.Files-x.mkv
Format : Matroska
Format version : Version 2
File size : 284 MiB
Duration : 22 min 7 s
Overall bit rate : 1 793 kb/s
Encoded date : UTC 2021-01-02 19:34:14
Writing application : mkvmerge v7.8.0 ('River Man') 32bit built on Apr 3 2015 12:11:22
Writing library : libebml v1.3.1 + libmatroska v1.4.2

Video
ID : 1
Format : AVC
Format/Info : Advanced Video Codec
Format profile : High@L4.1
Format settings : CABAC / 9 Ref Frames
Format settings, CABAC : Yes
Format settings, RefFrames : 9 frames
Codec ID : V_MPEG4/ISO/AVC
Duration : 22 min 7 s
Bit rate : 1 600 kb/s
Width : 1 024 pixels
Height : 576 pixels
Display aspect ratio : 16:9
Frame rate mode : Constant
Frame rate : 25.000 FPS
Color space : YUV
Chroma subsampling : 4:2:0
Bit depth : 8 bits
Scan type : Progressive
Bits/(Pixel*Frame) : 0.109
Stream size : 248 MiB (87%)
Writing library : x264 core 146 r2538 121396c
Encoding settings : cabac=1 / ref=9 / deblock=1:-2:-1 / analyse=0x3:0x133 / me=umh / subme=9 / psy=1 / psy_rd=1.00:0.15 / mixed_ref=1 / me_range=32 / chroma_me=1 / trellis=2 / 8x8dct=1 / cqm=0 / deadzone=21,11 / fast_pskip=0 / chroma_qp_offset=-3 / threads=18 / lookahead_threads=3 / sliced_threads=0 / nr=0 / decimate=1 / interlaced=0 / bluray_compat=0 / constrained_intra=0 / bframes=9 / b_pyramid=2 / b_adapt=2 / b_bias=0 / direct=1 / weightb=1 / open_gop=0 / weightp=2 / keyint=250 / keyint_min=25 / scenecut=40 / intra_refresh=0 / rc=2pass / mbtree=0 / bitrate=1600 / ratetol=1.0 / qcomp=0.60 / qpmin=0 / qpmax=69 / qpstep=4 / cplxblur=20.0 / qblur=0.5 / ip_ratio=1.40 / pb_ratio=1.30 / aq=2:1.00
Default : Yes
Forced : No
Color range : Limited
Color primaries : BT.709
Transfer characteristics : BT.709
Matrix coefficients : BT.709

Audio
ID : 2
Format : AC-3
Format/Info : Audio Coding 3
Format settings, Endianness : Big
Codec ID : A_AC3
Duration : 22 min 7 s
Bit rate mode : Constant
Bit rate : 192 kb/s
Channel(s) : 2 channels
Channel positions : Front: L R
Sampling rate : 48.0 kHz
Frame rate : 31.250 FPS (1536 SPF)
Bit depth : 16 bits
Compression mode : Lossy
Stream size : 30.4 MiB (11%)
Service kind : Complete Main
Default : Yes
Forced : No

Когда раздача ведётся путём добавления новых серий, при каждом добавлении создётся новый торрент. Чтобы начать докачку новой серии, пользователям необходимо сделать следующее:
(1) остановить скачивание,
(2) удалить старый торрент у себя из клиента (старые серии удалять не надо),
(3) скачать новый торрент и запустить его у себя в клиенте вместо старого, при этом указать клиенту путь в старую папку, куда и должно происходить скачивание новых серий.
Ваш клиент при этом должен произвести хеширование (проверку) старой папки (если не производит сам - помогите ему сделать это), и будет докачивать только те серии, которых у вас ещё нет. Старые серии при этом не удаляются, а продолжают раздаваться!
Eсли вы уже удалили старые серии, то предотвратить повторную закачку старых серий можно, отжав галочку в соответсвующих местах при запуске нового торрента. По возможности, желательно не удалять старые серии как можно дольше, чтобы релизёр не столько продолжал раздавать старые серии, а смог сконцентрироваться на новых.

pb.wtf



Скачать СашаТаня через торрент https://i114.fastpic.ru/big/2021/0102/df/f89ba0cf4756b99fe98aeb35f26df3df.jpg Скачать, смотреть онлайн СашаТаня бесплантно в хорошем качестве Описание: Ситком «САШАТАНЯ» разменял уже третью сотню эпизодов, но по прежнему герои поднимают актуальные семейные проблемы! В новых сериях ... 8.4 10 11
Торрент: Зарегистрирован [2021-10-13 04:18] · скачан: 21 раз
Статус: √ проверено
Размер: 7.48 GB
Как cкачать? Как скачать СашаТаня через торрент | UTorrent

28-11-2019 20:33  

Отключить всю рекламу на сайте

    Дорогой пользователь! Огромная просьба, поблагодарите релизера, оцените раздачу и оставьте свои комментарий, если Вы скачали СашаТаня через торрент бесплатно!
    Комментировать посты могут только пользователи прошедшие не сложную регистрацию
    Показать сообщения:    

    СашаТаня через торрент
    Скачать бесплатно СашаТаня
    СашаТаня скачать торрент
    СашаТаня смотреть онлайн
    Cкачать фильм СашаТаня бесплатно
    СашаТаня скачать торрент в хорошем качестве
    СашаТаня смотреть онлайн бесплатно в хорошем качестве


    Вы не можете начинать темы
    Вы не можете отвечать на сообщения
    Вы не можете редактировать свои сообщения
    Вы не можете удалять свои сообщения
    Вы не можете голосовать в опросах
    Вы не можете прикреплять файлы к сообщениям
    Вы можете скачивать файлы