Доктор Стрэндж

Лицензия

Добыча

Дубляж

Уэнсдэй

1 сезон

Тор

Дубляж

В эфире

Дубляж

Там, где раки поют

MVO

Властелин колец

1 сезон

Deluxe

pack

Рекомендуем

30

Пиратка

ВАЖНО

ВАЖНО

Ghostwire

Пиратка

jed

RePack

nioh2

RePack

RDR2

RePack

NEED FOR SPEED™ PAYBACK

RePack

скачать торрент

Кинопоиск HD

Острые козырьки 6 сезон

6 сезон

FAR CRY 6

RePack

скачать торрент

Лицензия

скачать торрент

MVO

1

1 сезон

скачать торрент

1 сезон

скачать торрент

Лицензия

  

Маленькая страна / Small Country: An African Childhood / Petit pays (Эрик Барбье) [2020, Драма, BDRip 1080p] Дубляж [iTunes]

Маленькая страна через торрент pb.wtf

Размер: 8.91 GB | Добавлен: 1 год 11 мес. назад | Торрент скачан:25 раз
Смотреть онлайн | Скачать   

03-01-2021 07:22 Маленькая страна Скачать торрент  

Маленькая страна | Small Country: An African Childhood | Petit pays
Год выпуска: 2020
Страна: Франция, Бельгия
Студия: Canal+ [fr], Ciné, France Télévisions, Indéfilms 8, Scope Pictures
Жанр: Драма
Продолжительность: 01:52:08
Перевод: Дублированный | iTunes
Субтитры: Русские (Full, Forced)

Режиссер: Эрик Барбье

rating

В ролях: Жан-Поль Рув, Изабель Кабано, Джибрил Ванкоппенолле, Дайла Де Медина, Тао Монладжа, Вероника Варга

Описание: В каком бы уголке Земли ни рос ребенок, он видит и ощущает мир совсем иначе, чем взрослые. Впитывает глубже, воспринимает острее, будь то просто дуновение ветра, неприятная фраза сверстника или недомолвки родителей. Экранизация мирового бестселлера рассказывает историю Габи — обычного мальчика, такого же, как другие. Но его детство закончится гораздо раньше, чем нужно, в момент, когда весь мир вокруг оказывается объят пламенем войны.

Качество: BDRip 1080p
Формат: MKV

Видео: MPEG-4 AVC, 1920x804, 10.3 Mbit/s, 23.976 fps
Аудио#1: 48 kHz, AC3, 5.1, 384 Kbps | iTunes | RUS |
Аудио#2: 48 kHz, AC3, 5.1, 640 Kbps | Оригинал | FRE |
скриншот  скриншот  скриншот  скриншот  скриншот  

General
Unique ID : 234522096067142566259841106665568262756 (0xB06F500FF736FD944B6EBBE6E954DA64)
Complete name : E:VideoFirstPetit.Pays.2020.BDRip.1080p.seleZen.mkv
Format : Matroska
Format version : Version 4
File size : 8.91 GiB
Duration : 1 h 52 min
Overall bit rate : 11.4 Mb/s
Movie name : Petit Pays 2020 from seleZen
Encoded date : UTC 2021-01-03 06:38:39
Writing application : mkvmerge v40.0.0 ('Old Town Road + Pony') 64-bit
Writing library : libebml v1.3.9 + libmatroska v1.5.2

Video
ID : 1
Format : AVC
Format/Info : Advanced Video Codec
Format profile : [email protected]
Format settings : CABAC / 5 Ref Frames
Format settings, CABAC : Yes
Format settings, Reference : 5 frames
Codec ID : V_MPEG4/ISO/AVC
Duration : 1 h 52 min
Bit rate : 10.3 Mb/s
Width : 1 920 pixels
Height : 804 pixels
Display aspect ratio : 2.40:1
Frame rate mode : Constant
Frame rate : 23.976 (24000/1001) FPS
Color space : YUV
Chroma subsampling : 4:2:0
Bit depth : 8 bits
Scan type : Progressive
Bits/(Pixel*Frame) : 0.279
Stream size : 8.10 GiB (91%)
Title : Encoded by seleZen
Writing library : x264 core 157 r2935 545de2f
Encoding settings : cabac=1 / ref=5 / deblock=1:-2:-2 / analyse=0x3:0x133 / me=umh / subme=10 / psy=1 / psy_rd=1.00:0.00 / mixed_ref=1 / me_range=32 / chroma_me=1 / trellis=2 / 8x8dct=1 / cqm=0 / deadzone=21,11 / fast_pskip=0 / chroma_qp_offset=-2 / threads=24 / lookahead_threads=4 / sliced_threads=0 / nr=0 / decimate=0 / interlaced=0 / bluray_compat=0 / constrained_intra=0 / bframes=8 / b_pyramid=2 / b_adapt=2 / b_bias=0 / direct=1 / weightb=1 / open_gop=0 / weightp=1 / keyint=240 / keyint_min=24 / scenecut=40 / intra_refresh=0 / rc_lookahead=40 / rc=2pass / mbtree=0 / bitrate=10343 / ratetol=1.0 / qcomp=0.60 / qpmin=0 / qpmax=51 / qpstep=4 / cplxblur=20.0 / qblur=0.5 / vbv_maxrate=50000 / vbv_bufsize=62500 / nal_hrd=none / filler=0 / ip_ratio=1.40 / pb_ratio=1.30 / aq=1:1.00
Language : French
Default : Yes
Forced : No
Color range : Limited
Color primaries : BT.709
Transfer characteristics : BT.709
Matrix coefficients : BT.709

Audio #1
ID : 2
Format : AC-3
Format/Info : Audio Coding 3
Commercial name : Dolby Digital
Codec ID : A_AC3
Duration : 1 h 52 min
Bit rate mode : Constant
Bit rate : 384 kb/s
Channel(s) : 6 channels
Channel layout : L R C LFE Ls Rs
Sampling rate : 48.0 kHz
Frame rate : 31.250 FPS (1536 SPF)
Compression mode : Lossy
Stream size : 308 MiB (3%)
Title : iTunes
Language : Russian
Service kind : Complete Main
Default : Yes
Forced : Yes

Audio #2
ID : 3
Format : AC-3
Format/Info : Audio Coding 3
Commercial name : Dolby Digital
Codec ID : A_AC3
Duration : 1 h 52 min
Bit rate mode : Constant
Bit rate : 640 kb/s
Channel(s) : 6 channels
Channel layout : L R C LFE Ls Rs
Sampling rate : 48.0 kHz
Frame rate : 31.250 FPS (1536 SPF)
Compression mode : Lossy
Stream size : 513 MiB (6%)
Title : Original
Language : French
Service kind : Complete Main
Default : No
Forced : No

Text #1
ID : 4
Format : UTF-8
Codec ID : S_TEXT/UTF8
Codec ID/Info : UTF-8 Plain Text
Duration : 1 h 46 min
Bit rate : 1 b/s
Count of elements : 20
Stream size : 1.09 KiB (0%)
Title : Forced
Language : Russian
Default : Yes
Forced : Yes

Text #2
ID : 5
Format : UTF-8
Codec ID : S_TEXT/UTF8
Codec ID/Info : UTF-8 Plain Text
Duration : 1 h 46 min
Bit rate : 87 b/s
Count of elements : 1753
Stream size : 68.7 KiB (0%)
Title : Full
Language : Russian
Default : No
Forced : No

Menu
00:00:00.000 : fr:Глава 01
00:10:16.407 : fr:Глава 02
00:20:35.109 : fr:Глава 03
00:31:18.126 : fr:Глава 04
00:41:46.129 : fr:Глава 05
00:52:18.719 : fr:Глава 06
01:02:33.291 : fr:Глава 07
01:13:36.621 : fr:Глава 08
01:21:44.733 : fr:Глава 09
01:28:27.344 : fr:Глава 10
01:35:30.808 : fr:Глава 11
01:47:53.759 : fr:Глава 12




Скачать Маленькая страна через торрент https://b.radikal.ru/b28/2101/bd/dd81ed4d4d22.jpg Скачать, смотреть онлайн Маленькая страна бесплантно в хорошем качестве Описание: В каком бы уголке Земли ни рос ребенок, он видит и ощущает мир совсем иначе, чем взрослые. Впитывает глубже, воспринимает острее, ... 10 10 4
Торрент: Зарегистрирован [2021-01-03 07:22] · скачан: 25 раз
Статус: √ проверено
Размер: 8.91 GB
Как cкачать? Как скачать Маленькая страна через торрент | UTorrent

% Раздел Тема Автор DL S | L
Фильмы 2019-2020 [DVDrip, WEB-DLRip, HDrip] (DUB, MVO) [ 1.41 GB ] Маленькая страна / Petit pays | Лицензия | BDRip Twi7ter Скачать
2 | 0
Фильмы (Blu-ray, BD-Remux, HDDVD) [ 30.96 GB ] Маленькая страна / Small Country: An African Childhood / Petit pays | iTunes | BD Remux 1080p bober100 Скачать
1 | 0
Фильмы 2019-2020 [DVDrip, WEB-DLRip, HDrip] (DUB, MVO) [ 2.13 GB ] Маленькая страна / Small Country: An African Childhood / Petit pays | iTunes | BDRip bober100 Скачать
1 | 0
Фильмы 2019-2020 [DVDrip, WEB-DLRip, HDrip] (DUB, MVO) [ 1.45 GB ] Маленькая страна / Small Country: An African Childhood / Petit pays | iTunes | DLRip-AVC Lithuania Скачать
1 | 0
Фильмы (WEB-DL 720p, 1080p) [ 3.86 GB ] Маленькая страна / Small Country: An African Childhood / Petit pays | iTunes | 1080p bober100 Скачать
1 | 0
Фильмы 2019-2020 [DVDrip, WEB-DLRip, HDrip] (DUB, MVO) [ 1.41 GB ] Маленькая страна / Small Country: An African Childhood / Petit pays | iTunes | BDRip bober100 Скачать
1 | 0

28-11-2019 20:33  


Отключить вcю реклaмy на сайте, в т.ч. и в плеере онлайн просмотра!

    Дорогой пользователь! Огромная просьба, поблагодарите релизера, оцените раздачу и оставьте свои комментарий, если Вы скачали Маленькая страна через торрент бесплатно!!
    Комментировать посты могут только пользователи прошедшие не сложную регистрацию
    Показать сообщения:    


    Маленькая страна через торрент
    Скачать бесплатно Маленькая страна
    Маленькая страна скачать торрент
    Маленькая страна смотреть онлайн
    Cкачать фильм Маленькая страна бесплатно
    Маленькая страна скачать торрент в хорошем качестве
    Маленькая страна смотреть онлайн бесплатно в хорошем качестве
    Вы не можете начинать темы
    Вы не можете отвечать на сообщения
    Вы не можете редактировать свои сообщения
    Вы не можете удалять свои сообщения
    Вы не можете голосовать в опросах
    Вы не можете прикреплять файлы к сообщениям
    Вы можете скачивать файлы
    Маленькая страна / Small Country: An African Childhood / Petit pays [2020, Драма, BDRip 1080p] Дубляж [iTunes] смотреть онлайн, скачать торрент picoco.icu