Доктор Стрэндж

Лицензия

Добыча

Дубляж

Уэнсдэй

1 сезон

Тор

Дубляж

В эфире

Дубляж

Там, где раки поют

MVO

Властелин колец

1 сезон

Deluxe

pack

Рекомендуем

30

Пиратка

ВАЖНО

ВАЖНО

Ghostwire

Пиратка

jed

RePack

nioh2

RePack

RDR2

RePack

NEED FOR SPEED™ PAYBACK

RePack

скачать торрент

Кинопоиск HD

Острые козырьки 6 сезон

6 сезон

FAR CRY 6

RePack

скачать торрент

Лицензия

скачать торрент

MVO

1

1 сезон

скачать торрент

1 сезон

скачать торрент

Лицензия

  

Настя, соберись! / Сезон: 1 / Серии: 1-10 из 10 (Вера Смолина) [2021, Комедия, WEBRip 1080p, (Версия 18+)]

Настя, соберись! через торрент pb.wtf

Размер: 12.95 GB | Добавлен: 1 год 10 мес. назад | Торрент скачан:147 раз
Смотреть онлайн | Скачать   

03-01-2021 12:59 Настя, соберись! Скачать торрент  

Настя, соберись!
Год выпуска: 2021
Страна: Россия
Выпущено: КиноПоиск HD, Droog Drooga Films
Жанр: Комедия
Продолжительность: ~ 00:30:00 серия
Субтитры: Русские
Версия 18+. Внимание! Присутствует ненормативная лексика.

Режиссер: Вера Смолина



В ролях: Любовь Аксёнова, Юлия Ауг, Светлана Камынина, Алина Алексеева (II), Рина Гришина, Юлия Гришаева, Ева Смирнова (II), Вера Строкова, Маргарита Аброськина, Арсений Сергеев

Описание: Знакомьтесь: Настя, 29 лет, дизайнер-архитектор, замужем. В ней уживаются пять совершенно разных внутренних «я». Это внутренний ребенок; ответственная за приступы всех генеральных уборок хозяюшка; одержимый контролем требовательный родитель; богиня удовольствий и самоуверенная, дерзкая карьеристка. У каждой из них — свои интересы и представления о счастье. Они хитрят, спорят и воюют между собой. Но когда Настя одновременно потеряет работу, мужа и лучшую подругу, пятёрку ждёт сложная задача. Им предстоит научиться договариваться друг с другом и идти на компромиссы — все ради того, чтобы Настя смогла с уверенностью сказать: «Я люблю себя всех!».

Качество: WEBRip 1080p
Формат: MKV

Видео: MPEG4 AVC Video, H264, 16:9, 1920x1080, 25 fps, ~4936 kbps, 0.095 bit/pixel
Аудио #01: 48.0 kHz, AC3 Dolby Digital, 2/0 (L,R) ch, ~ 192 kbps | C цензурой
Аудио #02: 48.0 kHz, AC3 Dolby Digital, 2/0 (L,R) ch, ~ 192 kbps | Внимание! Присутствует ненормативная лексика (18+)
скриншот  скриншот  скриншот  скриншот  

Общее
Уникальный идентификатор : 184892193747758801847934245399886946768 (0x8B18F0F540203308AD7031081DC9E1D0)
Полное имя : C:\Nastya.soberis.2021.WEB-DL.(1080p).Getty\Nastya.soberis.e01.2021.WEB-DL.(1080p).Getty.mkv
Формат : Matroska
Версия формата : Version 4 / Version 2
Размер файла : 1,13 Гбайт
Продолжительность : 30 м. 29 с.
Общий поток : 5322 Кбит/сек
Название фильма : Nastya.soberis.e01.2021.WEB-DL.(1080p).Getty
Дата кодирования : UTC 2021-01-02 22:22:55
Программа кодирования : mkvmerge v7.8.0 ('River Man') 32bit built on Mar 27 2015 16:18:02
Библиотека кодирования : libebml v1.3.1 + libmatroska v1.4.2

Видео
Идентификатор : 1
Формат : AVC
Формат/Информация : Advanced Video Codec
Профиль формата : [email protected]
Параметр CABAC формата : Да
Параметр RefFrames формата : 4 кадра
Идентификатор кодека : V_MPEG4/ISO/AVC
Продолжительность : 30 м. 29 с.
Битрейт : 4936 Кбит/сек
Ширина : 1920 пикселей
Высота : 1080 пикселей
Соотношение сторон : 16:9
Режим частоты кадров : Постоянный
Частота кадров : 25,000 кадров/сек
Цветовое пространство : YUV
Субдискретизация насыщенности : 4:2:0
Битовая глубина : 8 бит
Тип развёртки : Прогрессивная
Бит/(Пиксели*Кадры) : 0.093
Размер потока : 1,03 Гбайт (91%)
Default : Да
Forced : Нет

Аудио #1
Идентификатор : 2
Формат : AC-3
Формат/Информация : Audio Coding 3
Расширение режима : CM (complete main)
Параметр Endianness формата : Big
Идентификатор кодека : A_AC3
Продолжительность : 30 м. 29 с.
Вид битрейта : Постоянный
Битрейт : 192 Кбит/сек
Каналы : 2 канала
Расположение каналов : Front: L R
Частота : 48,0 КГц
Частота кадров : 31,250 кадров/сек (1536 spf)
Метод сжатия : С потерями
Размер потока : 41,9 Мбайт (4%)
Язык : Russian
Default : Да
Forced : Нет

Аудио #2
Идентификатор : 3
Формат : AC-3
Формат/Информация : Audio Coding 3
Расширение режима : CM (complete main)
Параметр Endianness формата : Big
Идентификатор кодека : A_AC3
Продолжительность : 30 м. 29 с.
Вид битрейта : Постоянный
Битрейт : 192 Кбит/сек
Каналы : 2 канала
Расположение каналов : Front: L R
Частота : 48,0 КГц
Частота кадров : 31,250 кадров/сек (1536 spf)
Метод сжатия : С потерями
Размер потока : 41,9 Мбайт (4%)
Заголовок : 18+
Язык : Russian
Default : Нет
Forced : Нет

Текст
Идентификатор : 4
Формат : UTF-8
Идентификатор кодека : S_TEXT/UTF8
Идентификатор кодека/Информация : UTF-8 Plain Text
Язык : Russian
Default : Нет
Forced : Нет

Внимание! Раздача ведётся путём добавления новых серий; при каждом добавлении создаётся новый торрент.
Чтобы начать докачку новой серии, пользователям необходимо сделать следующее:
1. Остановить скачивание;
2. Удалить старый торрент у себя из клиента (старые серии удалять не надо);
3. Скачать новый торрент и запустить его у себя в клиенте вместо старого, при этом указать клиенту путь в старую папку куда и должно происходить скачивание новых серий. Ваш клиент при этом должен произвести хеширование (проверку) старой папки и будет докачивать только те серии, которых у вас ещё нет. Старые серии при этом не удаляются, а продолжают раздаваться! Eсли вы уже удалили старые серии, то предотвратить повторную закачку старых серий можно, отжав галочку в соответствующих местах при запуске нового торрента.




Скачать Настя, соберись! через торрент https://a.radikal.ru/a38/2101/94/6dd2623fca46.png Скачать, смотреть онлайн Настя, соберись! бесплантно в хорошем качестве Описание: Знакомьтесь: Настя, 29 лет, дизайнер-архитектор, замужем. В ней уживаются пять совершенно разных внутренних «я». Это внутренний ... 9.9 10 19
Торрент: Зарегистрирован [2021-01-10 00:44] · скачан: 147 раз
Статус: √ проверено
Размер: 12.95 GB
Как cкачать? Как скачать Настя, соберись! через торрент | UTorrent

% Раздел Тема Автор DL S | L
Наши сериалы [ 8.2 GB ] Настя, соберись! / Сезон: 1 / Серии: 1-10 из 10 | | 720p, (Версия 18+ bober100 Скачать
1 | 0
Наши сериалы [ 29.33 GB ] Настя, соберись! / Сезон: 1 / Серии: 1-10 из 10 | | 2160p, (Версия 18+ bober100 Скачать
1 | 0
Наши сериалы [ 5.17 GB ] Настя, соберись! / Сезон: 1 / Серии: 1-10 из 10 | | WEBRip, (Версия 18+ bober100 Скачать
1 | 0
Наши сериалы [ 4.42 GB ] Настя, соберись! / Сезон: 1 / Серии: 1-10 из 10 | | WEBRip-AVC, (Версия 18+ bober100 Скачать
1 | 0

28-11-2019 20:33  


Отключить вcю реклaмy на сайте, в т.ч. и в плеере онлайн просмотра!

07-01-2021 13:02 Настя, соберись! Скачать торрент  

Посмотрел первые две серии и удалил, дальше смотреть не хочется, какой то неинтересный и скучный сериал



    Дорогой пользователь! Огромная просьба, поблагодарите релизера, оцените раздачу и оставьте свои комментарий, если Вы скачали Настя, соберись! через торрент бесплатно!!
    Комментировать посты могут только пользователи прошедшие не сложную регистрацию
    Показать сообщения:    


    Настя, соберись! через торрент
    Скачать бесплатно Настя, соберись!
    Настя, соберись! скачать торрент
    Настя, соберись! смотреть онлайн
    Cкачать фильм Настя, соберись! бесплатно
    Настя, соберись! скачать торрент в хорошем качестве
    Настя, соберись! смотреть онлайн бесплатно в хорошем качестве
    Вы не можете начинать темы
    Вы не можете отвечать на сообщения
    Вы не можете редактировать свои сообщения
    Вы не можете удалять свои сообщения
    Вы не можете голосовать в опросах
    Вы не можете прикреплять файлы к сообщениям
    Вы можете скачивать файлы
    Настя, соберись! / Сезон: 1 / Серии: 1-10 из 10 [2021, Комедия, WEBRip 1080p, ] смотреть онлайн, скачать торрент picoco.icu