2 сезон

iTunes

MVO

1

2 сезон

iTunes

iTunes

1 сезон

RePack

30

Новинка

ВАЖНО

ИГРА 18+

pack

RePack

MK11
pack

Легкие деньги

RePack

jed

RePack

fifa19

RePack

RDR2

RePack

NEED FOR SPEED™ PAYBACK

4 сезон

9 сезон

Бесстыжие 9 сезон

Все сериалы

все сериалы на PB.wtf

RePack

FAR CRY 5

Anonymous, доброй ночи, мы не успеваем собрать деньги на оплату серверов за декабрь и январь, помогите нам пожалуйста в это трудное время. В качестве благодарности мы отключим Вам всю рекламу на сайте (укажите свой ник в строку Ваше имя)!

×
  
Magnet ссылка

Новогодняя ночь на Первом / Части: 1-3 из 3 [2021, ТВ-шоу, концерт, HDTVRip] pb.wtf

Новогодняя ночь на Первом через торрент pb.wtf

Размер: 5.2 GB | Добавлен: 15 д. назад | Торрент скачан:25 раз
Скачать  

03-01-2021 18:32 Новогодняя ночь на Первом Скачать торрент  

Новогодняя ночь на Первом
Год выпуска: 2021
Страна: Россия
Жанр: ТВ-шоу, концерт
Продолжительность: 05:06:51
Перевод: Не требуется
Субтитры: отсутствуют

Описание: Встречайте Новый год и проводите новогодние каникулы вместе с Первым! Зажигательная музыка в исполнении ярких артистов, новогодние выпуски любимых программ, кулинарные и модные советы — все, что нужно для хорошего праздника, вы найдете в этом проекте. Ведущие праздничного вечера – Иван Ургант, Дмитрий Нагиев и Алла Михеева — получат в полное распоряжение двухэтажный туристический автобус, а в шоферы позовут Гарика Сукачева. Веселая компания будет колесить по Москве и отпаивать замерзших шампанским и горячим чаем.

Качество: HDTVRip
Формат: AVI

Видео: XviD, ~ 1849 Кбит/с, 720x400, 25 кадр/с
Аудио: 48.0 kHz, AC3 Dolby Digital, 2/0 (L,R) ch, ~ 192 kbps
скриншот  скриншот  скриншот  скриншот  скриншот  

General
Complete name : H:\fiiles x\Новогодняя ночь на Первом.2021.HDTVRip.Files-x\02. Новогодняя ночь на Первом.2021.HDTVRip.Files-x.avi
Format : AVI
Format/Info : Audio Video Interleave
File size : 1.81 GiB
Duration : 2h 6mn
Overall bit rate : 2 050 Kbps
Writing application : VirtualDubMod 1.5.10.3 | www.virtualdub-fr.org || (build 2550/release)
Writing library : VirtualDubMod build 2550/release

Video
ID : 0
Format : MPEG-4 Visual
Format profile : Advanced Simple@L5
Format settings, BVOP : 1
Format settings, QPel : No
Format settings, GMC : No warppoints
Format settings, Matrix : Custom
Codec ID : XVID
Codec ID/Hint : XviD
Duration : 2h 6mn
Bit rate : 1 849 Kbps
Width : 720 pixels
Height : 400 pixels
Display aspect ratio : 16:9
Frame rate : 25.000 fps
Color space : YUV
Chroma subsampling : 4:2:0
Bit depth : 8 bits
Scan type : Progressive
Compression mode : Lossy
Bits/(Pixel*Frame) : 0.257
Stream size : 1.63 GiB (90%)
Writing library : XviD 73

Audio
ID : 1
Format : AC-3
Format/Info : Audio Coding 3
Mode extension : CM (complete main)
Codec ID : 2000
Duration : 2h 6mn
Bit rate mode : Constant
Bit rate : 192 Kbps
Channel(s) : 2 channels
Channel positions : Front: L R
Sampling rate : 48.0 KHz
Bit depth : 16 bits
Compression mode : Lossy
Stream size : 173 MiB (9%)
Alignment : Split accross interleaves
Interleave, duration : 40 ms (1.00 video frame)
Interleave, preload duration : 500 ms

pb.wtf



Скачать Новогодняя ночь на Первом через торрент https://i111.fastpic.ru/big/2020/0104/c1/18c865d7b8c4b6bf8f23c2a41facfdc1.jpg Скачать фильм Новогодняя ночь на Первом через торрент бесплантно в хорошем качестве Описание: Встречайте Новый год и проводите новогодние каникулы вместе с Первым! Зажигательная музыка в исполнении ярких артистов, ... 7.3 10 4
Торрент: Зарегистрирован [2021-01-03 18:32] · скачан: 25 раз
Статус: √ проверено
Размер: 5.2 GB
Как cкачать? Как скачать Новогодняя ночь на Первом через торрент | UTorrent

28-11-2019 20:33  

Отключить всю рекламу на сайте

    Дорогой пользователь! Огромная просьба, поблагодарите релизера, оцените раздачу и оставьте свои комментарий, если Вы скачали Новогодняя ночь на Первом через торрент бесплатно! Внесите свою лепту в развитие PiratBit!
    Комментировать посты могут только пользователи прошедшие не сложную регистрацию
    Показать сообщения:    

    Новогодняя ночь на Первом через торрент
    Скачать бесплатно Новогодняя ночь на Первом
    Новогодняя ночь на Первом скачать торрент
    Новогодняя ночь на Первом смотреть онлайн
    Cкачать фильм Новогодняя ночь на Первом бесплатно
    Новогодняя ночь на Первом скачать торрент в хорошем качестве
    Новогодняя ночь на Первом смотреть онлайн бесплатно в хорошем качестве


    Вы не можете начинать темы
    Вы не можете отвечать на сообщения
    Вы не можете редактировать свои сообщения
    Вы не можете удалять свои сообщения
    Вы не можете голосовать в опросах
    Вы не можете прикреплять файлы к сообщениям
    Вы можете скачивать файлы