Anonymous, добрый вечер, присоединяйтесь к нам в Telegram!, здесь всегда актуальный адрес сайта, оперативная поддержка и многое другое!

>

5.5

iTunes

7.4

iTunes

7.9

iTunes

1

7.7

1 сезон

6.8

iTunes

7.3

1 сезон

13

6.7

1 сезон

8.3

RePack

30

ULTIMATE

pack

9.9

Лицензия

ВАЖНО

ИГРА 18+

pack

7.3

RePack

MK11

7.7

RePack

jed

7.8

RePack

fifa19

8.5

RePack

RDR2

RePack

NEED FOR SPEED™ PAYBACK

4 сезон

9 сезон

Бесстыжие 9 сезон

Все сериалы

все сериалы на PB.wtf

RePack

FAR CRY 5

Anonymous, добрый вечер, мы катастрофически не успеваем собрать деньги на оплату серверов, помогите нам пожалуйста 5,10,15р., для нас важна любая помощь . В качестве благодарности мы отключим Вам всю рекламу на сайте (укажите свой ник в строку Ваше имя)!

×
  
Magnet ссылка

Люди Икс: Коллекция / X-Men: Collection [2000-2020, фантастика, боевик, приключения, BDRip - HEVC 1080p 10 bit 60 FPS, DUB] pb.wtf

Люди Икс: Коллекция через торрент pb.wtf

Раздают: 5 [ 0 KB/s ]
Размер: 52.64 GB | Добавлен: 9 мес. назад | Торрент скачан:45 раз
Смотреть онлайн Люди Икс: Коллекция | Скачать    Ребята, помогите собрать деньги на оплату серверов!!!

04-01-2021 19:07 Люди Икс: Коллекция Скачать торрент  

«Люди Икс» (англ. X-Men film series) — серия фантастических фильмов про людей-мутантов, обладающих невероятными силами, основанная на одноимённых комиксах компании Marvel Comics. Сначала была выпущена трилогия, после вышли спин-оффы и приквелы, но затем в 2013 году оригинальная серия фильмов возобновилась. Киносерия занимает восьмое место в списке самых прибыльных серий фильмов с общими сборами более $6 млрд.

Порядок просмотра всех частей «Людей Икс» с учетом альтернативных таймлайнов

Люди Икс. Первый класс - X-Men. First Class «Стань свидетелем того, как изменится наш мир»

Год выпуска: 2011
Страна: США, Великобритания
Жанр: фантастика, боевик, приключения

Продолжительность: 02:11:42
Перевод: Дубляж
Субтитры: русские

Режиссер: Мэттью Вон
В ролях: Калеб Лэндри Джонс, Джеймс МакЭвой, Майкл Фассбендер, Кевин Бейкон, Роуз Бирн, Дженнифер Лоуренс, Николас Холт, Дженьюэри Джонс, Джейсон Флеминг, Лукас Тилл, Зои Кравиц, Эди Гатеги, Оливер Платт, Раде Шербеджия, Рэй Уайз, Майкл Айронсайд, Алекс Гонсалес, Гленн Моршауэр, Мэтт Крэйвен, Джеймс Римар, Брендан Фер, Джейсон Бех, Тони Кёрран, Хью Джекман, Ребекка Ромейн, Аннабелль Уоллис, Лоуренс Белчер, Билл Милнер, Бет Годдар

Описание:
«Люди-Икс: Первый класс» являются приквелом всей истории и началом Саги про Икс-Менов. Картина расскажет секретную историю многих громких, но покрытых завесой тайны событий. Еще до того, как мутанты стали неотъемлимой частью мира и до того, как Чарльз Ксавье и Эрик Леншерр взяли себе новые имена Профессора Икс и Магнето, два молодых парня впервые открыли в себе сверхъестественные силы. Не заклятые враги, они с самого начала были близкими друзьями, работали вместе и с другими мутантами (с друзьями и новичками), чтобы остановить Армагеддон. В процессе работы в их мировоззрениях возникло фатальное несоответствие, которое разрослось в полное непонимание. Это стало началом войны между Братством Магнето и Икс-Менами Профессора Икс.

Мировая премьера: 25 мая 2011


Качество: BDRip 1080p by DD2D3
Формат: MKV
Видео кодек: V_MPEGH/ISO/HEVC
Аудио кодек: AC3
Видео: V_MPEGH/ISO/HEVC;1920x816 (2.35:1);4002 Kbps;59,940 fps;0,043 bpp
Аудио: русский; AC3; 448 Kbps; CBR; 6 ch
Навигация по главам: есть



General
Unique ID : 178436519674782033125710386435790325018 (0x863D9FA6F65093A39F2E0339E2FDC51A)
Complete name : D:\Marvel Comics (2000 - ....) BDRip - HEVC 1080p 10 bit 60 FPS\X-Men film series (2000 - .....) BDRip - HEVC 1080p 10 bit 60 FPS\X-Men. First Class (2011) BDRip - HEVC 1080p 10bit 60 FPS.mkv
Format : Matroska
Format version : Version 4
File size : 4.10 GiB
Duration : 2 h 11 min
Overall bit rate : 4 456 kb/s
Movie name : Rip by from DD2D3
Encoded date : UTC 2020-10-12 15:33:56
Writing application : mkvmerge v10.0.0 ('To Drown In You') 32bit
Writing library : libebml v1.3.4 + libmatroska v1.4.5
Attachments : poster

Video
ID : 1
Format : HEVC
Format/Info : High Efficiency Video Coding
Format profile : Main 10@L4.1@Main
Codec ID : V_MPEGH/ISO/HEVC
Duration : 2 h 11 min
Bit rate : 4 003 kb/s
Width : 1 920 pixels
Height : 816 pixels
Display aspect ratio : 2.35:1
Frame rate mode : Constant
Frame rate : 59.940 (60000/1001) FPS
Color space : YUV
Chroma subsampling : 4:2:0
Bit depth : 10 bits
Bits/(Pixel*Frame) : 0.043
Stream size : 3.68 GiB (90%)
Writing library : x265 2.3+33-0b7d54dbb71a87a0:[Windows][MSVC 1800][64 bit] 10bit: KG7x [x265.ru]
Encoding settings : cpuid=1173503 / frame-threads=2 / numa-pools=4 / wpp / no-pmode / no-pme / no-psnr / no-ssim / log-level=2 / input-csp=1 / input-res=1920x816 / interlace=0 / total-frames=473696 / level-idc=41 / high-tier=1 / uhd-bd=0 / ref=3 / no-allow-non-conformance / no-repeat-headers / annexb / no-aud / no-hrd / info / hash=0 / no-temporal-layers / open-gop / min-keyint=25 / keyint=250 / bframes=4 / b-adapt=2 / b-pyramid / bframe-bias=0 / rc-lookahead=20 / lookahead-slices=5 / scenecut=40 / no-intra-refresh / ctu=64 / min-cu-size=8 / no-rect / no-amp / max-tu-size=32 / tu-inter-depth=1 / tu-intra-depth=1 / limit-tu=0 / rdoq-level=0 / dynamic-rd=0.00 / no-ssim-rd / signhide / no-tskip / nr-intra=0 / nr-inter=0 / no-constrained-intra / strong-intra-smoothing / max-merge=2 / limit-refs=3 / no-limit-modes / me=1 / subme=2 / merange=57 / temporal-mvp / weightp / no-weightb / no-analyze-src-pics / deblock=0:0 / sao / no-sao-non-deblock / rd=3 / no-early-skip / rskip / no-fast-intra / no-tskip-fast / no-cu-lossless / no-b-intra / rdpenalty=0 / psy-rd=2.00 / psy-rdoq=0.00 / no-rd-refine / analysis-mode=0 / no-lossless / cbqpoffs=0 / crqpoffs=0 / rc=abr / bitrate=4000 / qcomp=0.60 / qpstep=4 / stats-write=0 / stats-read=2 / cplxblur=20.0 / qblur=0.5 / ipratio=1.40 / pbratio=1.30 / aq-mode=1 / aq-strength=1.00 / cutree / zone-count=0 / no-strict-cbr / qg-size=32 / no-rc-grain / qpmax=69 / qpmin=0 / sar=1 / overscan=0 / videoformat=5 / range=0 / colorprim=2 / transfer=2 / colormatrix=2 / chromaloc=0 / display-window=0 / max-cll=0,0 / min-luma=0 / max-luma=1023 / log2-max-poc-lsb=8 / vui-timing-info / vui-hrd-info / slices=1 / opt-qp-pps / opt-ref-list-length-pps / no-multi-pass-opt-rps / scenecut-bias=0.05 / no-opt-cu-delta-qp / no-aq-motion / no-hdr / no-hdr-opt / refine-level=5 / no-limit-sao
Default : Yes
Forced : No

Audio
ID : 2
Format : AC-3
Format/Info : Audio Coding 3
Commercial name : Dolby Digital
Codec ID : A_AC3
Duration : 2 h 11 min
Bit rate mode : Constant
Bit rate : 448 kb/s
Channel(s) : 6 channels
Channel layout : L R C LFE Ls Rs
Sampling rate : 48.0 kHz
Frame rate : 31.250 FPS (1536 SPF)
Compression mode : Lossy
Stream size : 422 MiB (10%)
Title : DUB
Language : Russian
Service kind : Complete Main
Default : Yes
Forced : No

Text
ID : 3
Format : UTF-8
Codec ID : S_TEXT/UTF8
Codec ID/Info : UTF-8 Plain Text
Duration : 2 h 3 min
Bit rate : 74 b/s
Count of elements : 1419
Stream size : 67.5 KiB (0%)
Title : rus full
Language : Russian
Default : No
Forced : No

Menu
00:00:00.000 : en:00:00:00.000
00:04:21.553 : en:00:04:21.553
00:09:33.156 : en:00:09:33.156
00:14:03.426 : en:00:14:03.426
00:16:08.176 : en:00:16:08.176
00:22:10.829 : en:00:22:10.829
00:27:11.046 : en:00:27:11.046
00:28:46.350 : en:00:28:46.350
00:31:32.891 : en:00:31:32.891
00:36:07.540 : en:00:36:07.540
00:40:12.660 : en:00:40:12.660
00:44:16.487 : en:00:44:16.487
00:50:05.753 : en:00:50:05.753
00:54:00.863 : en:00:54:00.863
01:01:07.414 : en:01:01:07.414
01:08:17.927 : en:01:08:17.927
01:11:51.098 : en:01:11:51.098
01:14:06.525 : en:01:14:06.525
01:20:07.052 : en:01:20:07.052
01:23:43.226 : en:01:23:43.226
01:27:35.834 : en:01:27:35.834
01:28:51.243 : en:01:28:51.243
01:31:24.979 : en:01:31:24.979
01:33:33.900 : en:01:33:33.900
01:37:54.410 : en:01:37:54.410
01:39:55.197 : en:01:39:55.197
01:43:37.962 : en:01:43:37.962
01:47:44.166 : en:01:47:44.166
01:52:38.460 : en:01:52:38.460
01:56:44.623 : en:01:56:44.623
02:01:26.696 : en:02:01:26.696
02:04:24.248 : en:02:04:24.248


скриншот   скриншот   скриншот  




Люди Икс. Дни минувшего будущего - X-Men. Days of Future Past «His past. Our future»

Год выпуска: 2014
Страна: США, Великобритания, Канада
Жанр: фантастика, боевик, приключения

Продолжительность: 02:28:45
Перевод: Дубляж
Субтитры: русские

Режиссер: Брайан Сингер
В ролях: Джеймс МакЭвой, Майкл Фассбендер, Дженнифер Лоуренс, Хью Джекман, Николас Холт, Питер Динклэйдж, Иэн МакКеллен, Патрик Стюарт, Эллен Пейдж, Холли Берри, Джош Хелман, Шон Эшмор, Омар Си, Анна Пэкуин, Лукас Тилл, Фамке Янссен, Эван Питерс, Дэниэл Кадмор, Бинбин Фан, Адан Канто, Бу Бу Стюарт, Джеймс Марсден

Описание:
В будущем — лагерь для интернированных, где живут мутанты, лишившиеся свободы. В настоящем — непрекращающееся противостояние с Братством злых мутантов во главе с Мистик. В прошлом — возможность предотвратить господство Стражей, а значит, грядущую для мутантов изоляцию. Благодаря своим способностям путешествовать во времени, Китти Прайд, живущая в будущем, предупреждает нынешних мутантов о том, что их ждет. Но этого недостаточно, ведь из грядущего в настоящее явились и силы зла.

Мировая премьера: 10 мая 2014


Качество: BDRip 1080p by DD2D3
Формат: MKV
Видео кодек: V_MPEGH/ISO/HEVC
Аудио кодек: AC3
Видео: V_MPEGH/ISO/HEVC;1920x800 (2.40:1);4001 Kbps;59,940 fps;0,043 bpp
Аудио: русский; AC3; 384 Kbps; CBR; 6 ch
Навигация по главам: есть



General
Unique ID : 206208253259335004623090121349773976462 (0x9B2243D54882983CB75683455DD0E38E)
Complete name : D:\Marvel Comics (2000 - ....) BDRip - HEVC 1080p 10 bit 60 FPS\X-Men film series (2000 - .....) BDRip - HEVC 1080p 10 bit 60 FPS\X-Men. Days of Future Past [Rogue Cut] (2014) BDRip - HEVC 1080p 10bit 60 FPS.mkv
Format : Matroska
Format version : Version 4
File size : 4.56 GiB
Duration : 2 h 28 min
Overall bit rate : 4 390 kb/s
Movie name : Rip by from DD2D3
Encoded date : UTC 2020-10-16 15:12:03
Writing application : mkvmerge v10.0.0 ('To Drown In You') 32bit
Writing library : libebml v1.3.4 + libmatroska v1.4.5
Attachments : poster

Video
ID : 1
Format : HEVC
Format/Info : High Efficiency Video Coding
Format profile : Main 10@L4.1@Main
Codec ID : V_MPEGH/ISO/HEVC
Duration : 2 h 28 min
Bit rate : 4 002 kb/s
Width : 1 920 pixels
Height : 800 pixels
Display aspect ratio : 2.40:1
Frame rate mode : Constant
Frame rate : 59.940 (60000/1001) FPS
Color space : YUV
Chroma subsampling : 4:2:0
Bit depth : 10 bits
Bits/(Pixel*Frame) : 0.043
Stream size : 4.16 GiB (91%)
Writing library : x265 2.3+33-0b7d54dbb71a87a0:[Windows][MSVC 1800][64 bit] 10bit: KG7x [x265.ru]
Encoding settings : cpuid=1173503 / frame-threads=2 / numa-pools=4 / wpp / no-pmode / no-pme / no-psnr / no-ssim / log-level=2 / input-csp=1 / input-res=1920x800 / interlace=0 / total-frames=535003 / level-idc=41 / high-tier=1 / uhd-bd=0 / ref=3 / no-allow-non-conformance / no-repeat-headers / annexb / no-aud / no-hrd / info / hash=0 / no-temporal-layers / open-gop / min-keyint=25 / keyint=250 / bframes=4 / b-adapt=2 / b-pyramid / bframe-bias=0 / rc-lookahead=20 / lookahead-slices=5 / scenecut=40 / no-intra-refresh / ctu=64 / min-cu-size=8 / no-rect / no-amp / max-tu-size=32 / tu-inter-depth=1 / tu-intra-depth=1 / limit-tu=0 / rdoq-level=0 / dynamic-rd=0.00 / no-ssim-rd / signhide / no-tskip / nr-intra=0 / nr-inter=0 / no-constrained-intra / strong-intra-smoothing / max-merge=2 / limit-refs=3 / no-limit-modes / me=1 / subme=2 / merange=57 / temporal-mvp / weightp / no-weightb / no-analyze-src-pics / deblock=0:0 / sao / no-sao-non-deblock / rd=3 / no-early-skip / rskip / no-fast-intra / no-tskip-fast / no-cu-lossless / no-b-intra / rdpenalty=0 / psy-rd=2.00 / psy-rdoq=0.00 / no-rd-refine / analysis-mode=0 / no-lossless / cbqpoffs=0 / crqpoffs=0 / rc=abr / bitrate=4000 / qcomp=0.60 / qpstep=4 / stats-write=0 / stats-read=2 / cplxblur=20.0 / qblur=0.5 / ipratio=1.40 / pbratio=1.30 / aq-mode=1 / aq-strength=1.00 / cutree / zone-count=0 / no-strict-cbr / qg-size=32 / no-rc-grain / qpmax=69 / qpmin=0 / sar=1 / overscan=0 / videoformat=5 / range=0 / colorprim=2 / transfer=2 / colormatrix=2 / chromaloc=0 / display-window=0 / max-cll=0,0 / min-luma=0 / max-luma=1023 / log2-max-poc-lsb=8 / vui-timing-info / vui-hrd-info / slices=1 / opt-qp-pps / opt-ref-list-length-pps / no-multi-pass-opt-rps / scenecut-bias=0.05 / no-opt-cu-delta-qp / no-aq-motion / no-hdr / no-hdr-opt / refine-level=5 / no-limit-sao
Default : Yes
Forced : No

Audio
ID : 2
Format : AC-3
Format/Info : Audio Coding 3
Commercial name : Dolby Digital
Codec ID : A_AC3
Duration : 2 h 28 min
Bit rate mode : Constant
Bit rate : 384 kb/s
Channel(s) : 6 channels
Channel layout : L R C LFE Ls Rs
Sampling rate : 48.0 kHz
Frame rate : 31.250 FPS (1536 SPF)
Compression mode : Lossy
Stream size : 409 MiB (9%)
Title : iTunes
Language : Russian
Service kind : Complete Main
Default : Yes
Forced : No

Text
ID : 3
Format : UTF-8
Codec ID : S_TEXT/UTF8
Codec ID/Info : UTF-8 Plain Text
Duration : 2 h 18 min
Bit rate : 75 b/s
Count of elements : 1428
Stream size : 77.1 KiB (0%)
Title : Full
Language : Russian
Default : No
Forced : No

Menu
00:00:00.000 : en:00:00:00.000
00:03:33.338 : en:00:03:33.338
00:08:04.734 : en:00:08:04.734
00:10:34.217 : en:00:10:34.217
00:15:11.410 : en:00:15:11.410
00:18:44.248 : en:00:18:44.248
00:22:43.529 : en:00:22:43.529
00:24:38.769 : en:00:24:38.769
00:29:05.619 : en:00:29:05.619
00:33:03.440 : en:00:33:03.440
00:37:11.896 : en:00:37:11.896
00:38:49.827 : en:00:38:49.827
00:41:06.923 : en:00:41:06.923
00:43:50.336 : en:00:43:50.336
00:50:05.377 : en:00:50:05.377
00:52:07.082 : en:00:52:07.082
00:55:11.391 : en:00:55:11.391
00:57:56.348 : en:00:57:56.348
01:01:04.661 : en:01:01:04.661
01:04:01.421 : en:01:04:01.421
01:06:39.829 : en:01:06:39.829
01:10:22.802 : en:01:10:22.802
01:13:00.459 : en:01:13:00.459
01:16:28.334 : en:01:16:28.334
01:18:48.724 : en:01:18:48.724
01:20:44.590 : en:01:20:44.590
01:22:46.962 : en:01:22:46.962
01:28:07.574 : en:01:28:07.574
01:31:19.057 : en:01:31:19.057
01:33:50.958 : en:01:33:50.958
01:39:22.373 : en:01:39:22.373
01:42:10.291 : en:01:42:10.291
01:44:32.016 : en:01:44:32.016
01:49:13.547 : en:01:49:13.547
01:51:00.862 : en:01:51:00.862
01:54:54.304 : en:01:54:54.304
01:59:15.940 : en:01:59:15.940
02:02:13.743 : en:02:02:13.743
02:04:30.504 : en:02:04:30.504
02:08:16.230 : en:02:08:16.230
02:13:27.583 : en:02:13:27.583
02:16:57.250 : en:02:16:57.250
02:19:19.809 : en:02:19:19.809
02:27:34.011 : en:02:27:34.011


скриншот   скриншот   скриншот  



далее таймлайн «раздваивается» и мы получаем две альтернативных ветви

Люди Икс. Начало. Росомаха - X-Men. Origins. Wolverine«Узнай, с чего начиналась легенда»

Год выпуска: 2009
Страна: США, Великобритания
Жанр: фантастика, боевик, приключения

Продолжительность: 01:47:24
Перевод: Дубляж
Субтитры: русские

Режиссер: Гэвин Худ
В ролях: Хью Джекман, Лив Шрайбер, Дэнни Хьюстон, Уилл Ай Эм, Линн Коллинс, Кевин Дюран, Доминик Монахэн, Тейлор Китч, Дэниэл Хенни, Райан Рейнольдс, Элис Паркинсон, Скотт Эдкинс, Александра Дэвис, Уорвик Янг

Описание:
Этот фильм раскроет все загадки прошлого, самого интересного персонажа Людей Икс – Росомахи. В этой истории нас отведут к истокам его мутации, покажут, чем занимался Росомаха до того, как встретил Людей Икс, поднимут занавес над его романтичным прошлым, дадут понять причину его сложных отношений с Виктором Кридом. Также, мы больше узнаем об известной программе «Оружие X». А по ходу фильма, встретим, давно известных и любимых нами, остальных Людей Икс. Увидим их первую встречу и начинающиеся взаимоотношения.

Мировая премьера: 8 апреля 2009


Качество: BDRip 1080p by DD2D3
Формат: MKV
Видео кодек: V_MPEGH/ISO/HEVC
Аудио кодек: AC3
Видео: V_MPEGH/ISO/HEVC;1920x816 (2.35:1);4001 Kbps;59,940 fps;0,043 bpp
Аудио: русский; AC3; 448 Kbps; CBR; 6 ch
Навигация по главам: есть



General
Unique ID : 221336771033974629859620214802468198171 (0xA683E958E7A85DF1A11104758B3A571B)
Complete name : D:\Marvel Comics (2000 - ....) BDRip - HEVC 1080p 10 bit 60 FPS\X-Men film series (2000 - .....) BDRip - HEVC 1080p 10 bit 60 FPS\X-Men. Origins. Wolverine (2009) BDRip - HEVC 1080p 10bit 60 FPS.mkv
Format : Matroska
Format version : Version 4
File size : 3.34 GiB
Duration : 1 h 47 min
Overall bit rate : 4 455 kb/s
Movie name : Rip by from DD2D3
Encoded date : UTC 2020-10-12 15:28:04
Writing application : mkvmerge v10.0.0 ('To Drown In You') 32bit
Writing library : libebml v1.3.4 + libmatroska v1.4.5
Attachments : poster

Video
ID : 1
Format : HEVC
Format/Info : High Efficiency Video Coding
Format profile : Main 10@L4.1@Main
Codec ID : V_MPEGH/ISO/HEVC
Duration : 1 h 47 min
Bit rate : 4 002 kb/s
Width : 1 920 pixels
Height : 816 pixels
Display aspect ratio : 2.35:1
Frame rate mode : Constant
Frame rate : 59.940 (60000/1001) FPS
Color space : YUV
Chroma subsampling : 4:2:0
Bit depth : 10 bits
Bits/(Pixel*Frame) : 0.043
Stream size : 3.00 GiB (90%)
Writing library : x265 2.3+33-0b7d54dbb71a87a0:[Windows][MSVC 1800][64 bit] 10bit: KG7x [x265.ru]
Encoding settings : cpuid=1173503 / frame-threads=2 / numa-pools=4 / wpp / no-pmode / no-pme / no-psnr / no-ssim / log-level=2 / input-csp=1 / input-res=1920x816 / interlace=0 / total-frames=386268 / level-idc=41 / high-tier=1 / uhd-bd=0 / ref=3 / no-allow-non-conformance / no-repeat-headers / annexb / no-aud / no-hrd / info / hash=0 / no-temporal-layers / open-gop / min-keyint=25 / keyint=250 / bframes=4 / b-adapt=2 / b-pyramid / bframe-bias=0 / rc-lookahead=20 / lookahead-slices=5 / scenecut=40 / no-intra-refresh / ctu=64 / min-cu-size=8 / no-rect / no-amp / max-tu-size=32 / tu-inter-depth=1 / tu-intra-depth=1 / limit-tu=0 / rdoq-level=0 / dynamic-rd=0.00 / no-ssim-rd / signhide / no-tskip / nr-intra=0 / nr-inter=0 / no-constrained-intra / strong-intra-smoothing / max-merge=2 / limit-refs=3 / no-limit-modes / me=1 / subme=2 / merange=57 / temporal-mvp / weightp / no-weightb / no-analyze-src-pics / deblock=0:0 / sao / no-sao-non-deblock / rd=3 / no-early-skip / rskip / no-fast-intra / no-tskip-fast / no-cu-lossless / no-b-intra / rdpenalty=0 / psy-rd=2.00 / psy-rdoq=0.00 / no-rd-refine / analysis-mode=0 / no-lossless / cbqpoffs=0 / crqpoffs=0 / rc=abr / bitrate=4000 / qcomp=0.60 / qpstep=4 / stats-write=0 / stats-read=2 / cplxblur=20.0 / qblur=0.5 / ipratio=1.40 / pbratio=1.30 / aq-mode=1 / aq-strength=1.00 / cutree / zone-count=0 / no-strict-cbr / qg-size=32 / no-rc-grain / qpmax=69 / qpmin=0 / sar=1 / overscan=0 / videoformat=5 / range=0 / colorprim=2 / transfer=2 / colormatrix=2 / chromaloc=0 / display-window=0 / max-cll=0,0 / min-luma=0 / max-luma=1023 / log2-max-poc-lsb=8 / vui-timing-info / vui-hrd-info / slices=1 / opt-qp-pps / opt-ref-list-length-pps / no-multi-pass-opt-rps / scenecut-bias=0.05 / no-opt-cu-delta-qp / no-aq-motion / no-hdr / no-hdr-opt / refine-level=5 / no-limit-sao
Default : Yes
Forced : No

Audio
ID : 2
Format : AC-3
Format/Info : Audio Coding 3
Commercial name : Dolby Digital
Codec ID : A_AC3
Duration : 1 h 47 min
Bit rate mode : Constant
Bit rate : 448 kb/s
Channel(s) : 6 channels
Channel layout : L R C LFE Ls Rs
Sampling rate : 48.0 kHz
Frame rate : 31.250 FPS (1536 SPF)
Compression mode : Lossy
Stream size : 344 MiB (10%)
Title : DUB
Language : Russian
Service kind : Complete Main
Default : Yes
Forced : No

Text
ID : 3
Format : UTF-8
Codec ID : S_TEXT/UTF8
Codec ID/Info : UTF-8 Plain Text
Duration : 1 h 46 min
Bit rate : 49 b/s
Count of elements : 859
Stream size : 38.8 KiB (0%)
Title : rus full
Language : Russian
Default : No
Forced : No

Menu
00:00:00.000 : :My Son
00:03:21.201 : :Main Titles/Invincible Warriors
00:07:49.010 : :Recruitment
00:10:28.419 : :Special Team
00:14:09.807 : :Enough!
00:17:50.110 : :New Life
00:19:31.503 : :Show's Over
00:25:55.136 : :Powers of Persuasion
00:28:17.987 : :The Moon and Her Lover
00:32:28.571 : :Out For Blood
00:37:51.310 : :Weapon X
00:45:03.367 : :Kindness to Strangers
00:49:43.647 : :Blow Him to Bits
00:56:28.468 : :Our Own Kind
00:59:41.828 : :Boxing With the Blob
01:02:17.650 : :Mutant Capture
01:06:12.176 : :Gambit
01:09:54.523 : :Confronting Victor
01:12:54.703 : :Preemptive Action
01:16:19.741 : :Played for a Fool
01:21:29.467 : :Animal Rage
01:25:57.777 : :Weapon XI
01:28:55.121 : :Common Enemy
01:32:06.812 : :Always Brothers
01:33:37.069 : :Point Blank
01:37:15.538 : :What's My Name?
01:40:22.141 : :End Titles/Under Arrest
01:41:26.121 : :End Titles/Back From the Dead


скриншот   скриншот   скриншот  



Люди Икс - X-Men «Доверяй немногим, бойся остальных»

Год выпуска: 2000
Страна: США
Жанр: фантастика, боевик, приключения

Продолжительность: 01:44:20
Перевод: Дубляж
Субтитры: русские

Режиссер: Брайан Сингер
В ролях: Хью Джекман, Патрик Стюарт, Иэн МакКеллен, Фамке Янссен, Джеймс Марсден, Холли Берри, Анна Пэкуин, Брюс Дэвисон, Стэн Ли, Тайлер Мэйн, Рэй Парк, Ребекка Ромейн, Мэттью Шарп, Шон Эшмор

Описание:
Радиоактивное загрязнение поразило планету, вызвав многие тысячи мутаций. Большинство мутантов не выживает, они умирают вскоре после рождения, но оказались и те, кто выжил. Их называют Люди Х, они новая ступень эволюции. Каждый из них уникален, каждая мутация индивидуальна. Они наделяют человека неповторимыми способностями, присущими только ему. Людей Х боятся и ненавидят, они вынуждены скрываться, ведь даже их удивительных способностей недостаточно, чтобы справиться с разъяренной толпой, которая считает тебя ошибкой природы.

Мировая премьера: 12 июля 2000


Качество: BDRip 1080p by DD2D3
Формат: MKV
Видео кодек: V_MPEGH/ISO/HEVC
Аудио кодек: AC3
Видео: V_MPEGH/ISO/HEVC;1920x816 (2.35:1);4001 Kbps;59,940 fps;0,043 bpp
Аудио: русский; AC3; 448 Kbps; CBR; 6 ch
Навигация по главам: есть



General
Unique ID : 179768160693759958636346906935600603538 (0x873E169F98C3799F846168D070C7E192)
Complete name : D:\Marvel Comics (2000 - ....) BDRip - HEVC 1080p 10 bit 60 FPS\X-Men film series (2000 - .....) BDRip - HEVC 1080p 10 bit 60 FPS\X-Men (2000) BDRip - HEVC 1080p 10bit 60 FPS.mkv
Format : Matroska
Format version : Version 4
File size : 3.25 GiB
Duration : 1 h 44 min
Overall bit rate : 4 455 kb/s
Movie name : Rip by from DD2D3
Encoded date : UTC 2020-10-06 16:44:22
Writing application : mkvmerge v10.0.0 ('To Drown In You') 32bit
Writing library : libebml v1.3.4 + libmatroska v1.4.5
Attachments : poster

Video
ID : 1
Format : HEVC
Format/Info : High Efficiency Video Coding
Format profile : Main 10@L4.1@Main
Codec ID : V_MPEGH/ISO/HEVC
Duration : 1 h 44 min
Bit rate : 4 002 kb/s
Width : 1 920 pixels
Height : 816 pixels
Display aspect ratio : 2.35:1
Frame rate mode : Constant
Frame rate : 59.940 (60000/1001) FPS
Color space : YUV
Chroma subsampling : 4:2:0
Bit depth : 10 bits
Bits/(Pixel*Frame) : 0.043
Stream size : 2.92 GiB (90%)
Writing library : x265 2.3+33-0b7d54dbb71a87a0:[Windows][MSVC 1800][64 bit] 10bit: KG7x [x265.ru]
Encoding settings : cpuid=1173503 / frame-threads=2 / numa-pools=4 / wpp / no-pmode / no-pme / no-psnr / no-ssim / log-level=2 / input-csp=1 / input-res=1920x816 / interlace=0 / total-frames=375238 / level-idc=41 / high-tier=1 / uhd-bd=0 / ref=3 / no-allow-non-conformance / no-repeat-headers / annexb / no-aud / no-hrd / info / hash=0 / no-temporal-layers / open-gop / min-keyint=25 / keyint=250 / bframes=4 / b-adapt=2 / b-pyramid / bframe-bias=0 / rc-lookahead=20 / lookahead-slices=5 / scenecut=40 / no-intra-refresh / ctu=64 / min-cu-size=8 / no-rect / no-amp / max-tu-size=32 / tu-inter-depth=1 / tu-intra-depth=1 / limit-tu=0 / rdoq-level=0 / dynamic-rd=0.00 / no-ssim-rd / signhide / no-tskip / nr-intra=0 / nr-inter=0 / no-constrained-intra / strong-intra-smoothing / max-merge=2 / limit-refs=3 / no-limit-modes / me=1 / subme=2 / merange=57 / temporal-mvp / weightp / no-weightb / no-analyze-src-pics / deblock=0:0 / sao / no-sao-non-deblock / rd=3 / no-early-skip / rskip / no-fast-intra / no-tskip-fast / no-cu-lossless / no-b-intra / rdpenalty=0 / psy-rd=2.00 / psy-rdoq=0.00 / no-rd-refine / analysis-mode=0 / no-lossless / cbqpoffs=0 / crqpoffs=0 / rc=abr / bitrate=4000 / qcomp=0.60 / qpstep=4 / stats-write=0 / stats-read=2 / cplxblur=20.0 / qblur=0.5 / ipratio=1.40 / pbratio=1.30 / aq-mode=1 / aq-strength=1.00 / cutree / zone-count=0 / no-strict-cbr / qg-size=32 / no-rc-grain / qpmax=69 / qpmin=0 / sar=1 / overscan=0 / videoformat=5 / range=0 / colorprim=2 / transfer=2 / colormatrix=2 / chromaloc=0 / display-window=0 / max-cll=0,0 / min-luma=0 / max-luma=1023 / log2-max-poc-lsb=8 / vui-timing-info / vui-hrd-info / slices=1 / opt-qp-pps / opt-ref-list-length-pps / no-multi-pass-opt-rps / scenecut-bias=0.05 / no-opt-cu-delta-qp / no-aq-motion / no-hdr / no-hdr-opt / refine-level=5 / no-limit-sao
Default : Yes
Forced : No

Audio
ID : 2
Format : AC-3
Format/Info : Audio Coding 3
Commercial name : Dolby Digital
Codec ID : A_AC3
Duration : 1 h 44 min
Bit rate mode : Constant
Bit rate : 448 kb/s
Channel(s) : 6 channels
Channel layout : L R C LFE Ls Rs
Sampling rate : 48.0 kHz
Frame rate : 31.250 FPS (1536 SPF)
Compression mode : Lossy
Stream size : 334 MiB (10%)
Title : Дублированный
Language : Russian
Service kind : Complete Main
Default : Yes
Forced : No

Text
ID : 3
Format : UTF-8
Codec ID : S_TEXT/UTF8
Codec ID/Info : UTF-8 Plain Text
Duration : 1 h 34 min
Bit rate : 50 b/s
Count of elements : 610
Stream size : 34.8 KiB (0%)
Language : Russian
Default : Yes
Forced : No

Menu
00:00:00.000 : en:Chapter 00
00:01:19.287 : en:Chapter 01
00:04:18.132 : en:Chapter 02
00:05:56.022 : en:Chapter 03
00:07:56.058 : en:Chapter 04
00:09:23.688 : en:Chapter 05
00:11:37.697 : en:Chapter 06
00:14:38.502 : en:Chapter 07
00:18:01.663 : en:Chapter 08
00:20:49.665 : en:Chapter 09
00:22:09.119 : en:Chapter 10
00:23:58.645 : en:Chapter 11
00:28:45.849 : en:Chapter 12
00:29:55.168 : en:Chapter 13
00:32:06.507 : en:Chapter 14
00:33:37.682 : en:Chapter 15
00:36:37.236 : en:Chapter 16
00:38:25.177 : en:Chapter 17
00:41:11.886 : en:Chapter 18
00:44:13.859 : en:Chapter 19
00:45:50.456 : en:Chapter 20
00:48:41.543 : en:Chapter 21
00:50:22.436 : en:Chapter 22
00:52:05.831 : en:Chapter 23
00:54:58.211 : en:Chapter 24
00:58:11.154 : en:Chapter 25
00:59:19.764 : en:Chapter 26
01:01:54.961 : en:Chapter 27
01:03:17.627 : en:Chapter 28
01:06:02.375 : en:Chapter 29
01:08:39.782 : en:Chapter 30
01:12:21.378 : en:Chapter 31
01:18:03.804 : en:Chapter 32
01:20:53.223 : en:Chapter 33
01:24:28.063 : en:Chapter 34
01:26:58.421 : en:Chapter 35
01:29:08.509 : en:Chapter 36
01:31:47.210 : en:Chapter 37
01:33:12.878 : en:Chapter 38
01:35:12.123 : en:Chapter 39


скриншот   скриншот   скриншот  



Люди Икс 2 - X-Men 2 «Сплотиться сегодня, чтобы наступило завтра»

Год выпуска: 2003
Страна: Канада, США
Жанр: фантастика, боевик, приключения, триллер

Продолжительность: 02:13:47
Перевод: Дубляж
Субтитры: русские

Режиссер: Брайан Сингер
В ролях: Патрик Стюарт, Хью Джекман, Иэн МакКеллен, Холли Берри, Джеймс Марсден, Анна Пэкуин, Фамке Янссен, Брайан Кокс, Дэниэл Кадмор, Алан Камминг, Ребекка Ромейн, Кэти Стюарт, Брюс Дэвисон, Шон Эшмор, Келли Ху, Тай Олссон, Аарон Стэнфорд

Описание:
Человек подчинил себе природу, и природа не осталась в долгу. Тысячи различных мутаций поразили человечество, в результате этих мутаций на свет появились Люди Х. Они наделены нечеловеческими способностями, с самого рождения они были изгоями. Их ненавидели и боялись. Постепенно мутанты научились управлять своими способностями. Под предводительством Чарльза Ксавье Люди Х объединились, для того чтобы защищать мир. Тот самый мир, который считает их уродами, тот самый мир, который отверг их, когда они еще были детьми.

Мировая премьера: 24 апреля 2003


Качество: BDRip 1080p by DD2D3
Формат: MKV
Видео кодек: V_MPEGH/ISO/HEVC
Аудио кодек: AC3
Видео: V_MPEGH/ISO/HEVC; 1920x800 (2.40:1); 4001 Kbps; 59,940 fps; 0,043 bpp
Аудио: русский; AC3; 448 Kbps; CBR; 6 ch
Навигация по главам: есть



General
Unique ID : 171764351667073017794474198269982792347 (0x81389C5F0D771E7FB50798528135DA9B)
Complete name : D:\Marvel Comics (2000 - ....) BDRip - HEVC 1080p 10 bit 60 FPS\X-Men film series (2000 - .....) BDRip - HEVC 1080p 10 bit 60 FPS\X-Men 2 (2003) BDRip - HEVC 1080p 10bit 60 FPS.mkv
Format : Matroska
Format version : Version 4
File size : 4.16 GiB
Duration : 2 h 13 min
Overall bit rate : 4 455 kb/s
Movie name : Rip by from DD2D3
Encoded date : UTC 2020-10-08 16:16:45
Writing application : mkvmerge v10.0.0 ('To Drown In You') 32bit
Writing library : libebml v1.3.4 + libmatroska v1.4.5
Attachments : poster

Video
ID : 1
Format : HEVC
Format/Info : High Efficiency Video Coding
Format profile : Main 10@L4.1@Main
Codec ID : V_MPEGH/ISO/HEVC
Duration : 2 h 13 min
Bit rate : 4 002 kb/s
Width : 1 920 pixels
Height : 800 pixels
Display aspect ratio : 2.40:1
Frame rate mode : Constant
Frame rate : 59.940 (60000/1001) FPS
Color space : YUV
Chroma subsampling : 4:2:0
Bit depth : 10 bits
Bits/(Pixel*Frame) : 0.043
Stream size : 3.74 GiB (90%)
Writing library : x265 2.3+33-0b7d54dbb71a87a0:[Windows][MSVC 1800][64 bit] 10bit: KG7x [x265.ru]
Encoding settings : cpuid=1173503 / frame-threads=2 / numa-pools=4 / wpp / no-pmode / no-pme / no-psnr / no-ssim / log-level=2 / input-csp=1 / input-res=1920x800 / interlace=0 / total-frames=481163 / level-idc=41 / high-tier=1 / uhd-bd=0 / ref=3 / no-allow-non-conformance / no-repeat-headers / annexb / no-aud / no-hrd / info / hash=0 / no-temporal-layers / open-gop / min-keyint=25 / keyint=250 / bframes=4 / b-adapt=2 / b-pyramid / bframe-bias=0 / rc-lookahead=20 / lookahead-slices=5 / scenecut=40 / no-intra-refresh / ctu=64 / min-cu-size=8 / no-rect / no-amp / max-tu-size=32 / tu-inter-depth=1 / tu-intra-depth=1 / limit-tu=0 / rdoq-level=0 / dynamic-rd=0.00 / no-ssim-rd / signhide / no-tskip / nr-intra=0 / nr-inter=0 / no-constrained-intra / strong-intra-smoothing / max-merge=2 / limit-refs=3 / no-limit-modes / me=1 / subme=2 / merange=57 / temporal-mvp / weightp / no-weightb / no-analyze-src-pics / deblock=0:0 / sao / no-sao-non-deblock / rd=3 / no-early-skip / rskip / no-fast-intra / no-tskip-fast / no-cu-lossless / no-b-intra / rdpenalty=0 / psy-rd=2.00 / psy-rdoq=0.00 / no-rd-refine / analysis-mode=0 / no-lossless / cbqpoffs=0 / crqpoffs=0 / rc=abr / bitrate=4000 / qcomp=0.60 / qpstep=4 / stats-write=0 / stats-read=2 / cplxblur=20.0 / qblur=0.5 / ipratio=1.40 / pbratio=1.30 / aq-mode=1 / aq-strength=1.00 / cutree / zone-count=0 / no-strict-cbr / qg-size=32 / no-rc-grain / qpmax=69 / qpmin=0 / sar=1 / overscan=0 / videoformat=5 / range=0 / colorprim=2 / transfer=2 / colormatrix=2 / chromaloc=0 / display-window=0 / max-cll=0,0 / min-luma=0 / max-luma=1023 / log2-max-poc-lsb=8 / vui-timing-info / vui-hrd-info / slices=1 / opt-qp-pps / opt-ref-list-length-pps / no-multi-pass-opt-rps / scenecut-bias=0.05 / no-opt-cu-delta-qp / no-aq-motion / no-hdr / no-hdr-opt / refine-level=5 / no-limit-sao
Default : Yes
Forced : No

Audio
ID : 2
Format : AC-3
Format/Info : Audio Coding 3
Commercial name : Dolby Digital
Codec ID : A_AC3
Duration : 2 h 13 min
Bit rate mode : Constant
Bit rate : 448 kb/s
Channel(s) : 6 channels
Channel layout : L R C LFE Ls Rs
Sampling rate : 48.0 kHz
Frame rate : 31.250 FPS (1536 SPF)
Compression mode : Lossy
Stream size : 429 MiB (10%)
Title : DUB (Blu-ray CEE)
Language : Russian
Service kind : Complete Main
Default : Yes
Forced : No

Text
ID : 3
Format : UTF-8
Codec ID : S_TEXT/UTF8
Codec ID/Info : UTF-8 Plain Text
Duration : 2 h 4 min
Bit rate : 56 b/s
Count of elements : 868
Stream size : 51.0 KiB (0%)
Language : Russian
Default : No
Forced : No

Menu
00:00:00.000 : en:Chapter 00
00:01:50.527 : en:Chapter 01
00:05:21.946 : en:Chapter 02
00:07:12.265 : en:Chapter 03
00:12:27.121 : en:Chapter 04
00:15:34.224 : en:Chapter 05
00:17:57.326 : en:Chapter 06
00:19:25.706 : en:Chapter 07
00:22:47.616 : en:Chapter 08
00:26:09.693 : en:Chapter 09
00:29:15.962 : en:Chapter 10
00:31:10.285 : en:Chapter 11
00:33:41.686 : en:Chapter 12
00:35:09.524 : en:Chapter 13
00:39:50.179 : en:Chapter 14
00:45:35.733 : en:Chapter 15
00:47:18.335 : en:Chapter 16
00:50:24.104 : en:Chapter 17
00:53:17.986 : en:Chapter 18
00:55:40.420 : en:Chapter 19
00:57:14.931 : en:Chapter 20
00:59:21.808 : en:Chapter 21
01:04:55.892 : en:Chapter 22
01:09:23.701 : en:Chapter 23
01:14:48.734 : en:Chapter 24
01:18:18.485 : en:Chapter 25
01:24:52.545 : en:Chapter 26
01:27:16.439 : en:Chapter 27
01:30:32.385 : en:Chapter 28
01:32:33.923 : en:Chapter 29
01:36:44.089 : en:Chapter 30
01:41:16.070 : en:Chapter 31
01:43:31.163 : en:Chapter 32
01:46:38.058 : en:Chapter 33
01:48:38.637 : en:Chapter 34
01:53:41.940 : en:Chapter 35
01:58:18.883 : en:Chapter 36
02:02:14.660 : en:Chapter 37
02:04:38.471 : en:Chapter 38
02:05:11.170 : en:Chapter 39


скриншот   скриншот   скриншот  



Люди Икс. Последняя битва - X-Men. The Last Stand«На чьей стороне будешь ты?»

Год выпуска: 2006
Страна: Канада, США, Великобритания
Жанр: фантастика, боевик, приключения, триллер

Продолжительность: 01:44:05
Перевод: Дубляж
Субтитры: русские

Режиссер: Бретт Рэтнер
В ролях: Хью Джекман, Шоре Агдашлу, Бен Фостер, Иэн МакКеллен, Хэйли Рэмм, Анна Пэкуин, Майкл Мерфи, Винни Джонс, Стэн Ли, Холли Берри, Ребекка Ромейн, Джеймс Марсден, Патрик Стюарт, Келси Грэммер, Эллен Пейдж, Дэниэл Кадмор, Билл Дьюк, Дания Рамирес, Даг Леннокс, Коннор Уиддоуз, Кен Люн, Оливия Уильямс, Фамке Янссен, Брайс Ходжсон, Шон Эшмор, Камерон Брайт, Кейден Бойд, Аарон Стэнфорд

Описание:
Людей Х ожидает новая битва, на этот раз их противником становится тот, кто раньше был одним из них. Джин Грей возродилась, теперь она называет себя Темным Фениксом и сам факт её существования угрожает не только Людям Х, но и всему человечеству. Тем временем было изобретено лекарство от генетических мутаций, которых с каждым годом становится все больше и больше и правительство применяет его в виде оружия против мутантов. И начинается последняя, решающая, битва между Людьми Х и таинственным Братством Магнито.

Мировая премьера: 22 мая 2006


Качество: BDRip 1080p by DD2D3
Формат: MKV
Видео кодек: V_MPEGH/ISO/HEVC
Аудио кодек: AC3
Видео: V_MPEGH/ISO/HEVC; 1920x800 (2.40:1); 4002 Kbps; 59,940 fps; 0,043 bpp
Аудио: русский; AC3; 448 Kbps; CBR; 6 ch
Навигация по главам: есть



General
Unique ID : 197800439109241123284024592919003035645 (0x94CEFA972E67EC949EEFF567EBFA77FD)
Complete name : D:\Marvel Comics (2000 - ....) BDRip - HEVC 1080p 10 bit 60 FPS\X-Men film series (2000 - .....) BDRip - HEVC 1080p 10 bit 60 FPS\X-Men. The Last Stand (2006) BDRip - HEVC 1080p 10bit 60 FPS.mkv
Format : Matroska
Format version : Version 4
File size : 3.24 GiB
Duration : 1 h 44 min
Overall bit rate : 4 456 kb/s
Movie name : Rip by from DD2D3
Encoded date : UTC 2020-10-09 18:59:15
Writing application : mkvmerge v10.0.0 ('To Drown In You') 32bit
Writing library : libebml v1.3.4 + libmatroska v1.4.5
Attachments : poster

Video
ID : 1
Format : HEVC
Format/Info : High Efficiency Video Coding
Format profile : Main 10@L4.1@Main
Codec ID : V_MPEGH/ISO/HEVC
Duration : 1 h 44 min
Bit rate : 4 003 kb/s
Width : 1 920 pixels
Height : 800 pixels
Display aspect ratio : 2.40:1
Frame rate mode : Constant
Frame rate : 59.940 (60000/1001) FPS
Color space : YUV
Chroma subsampling : 4:2:0
Bit depth : 10 bits
Bits/(Pixel*Frame) : 0.043
Stream size : 2.91 GiB (90%)
Writing library : x265 2.3+33-0b7d54dbb71a87a0:[Windows][MSVC 1800][64 bit] 10bit: KG7x [x265.ru]
Encoding settings : cpuid=1173503 / frame-threads=2 / numa-pools=4 / wpp / no-pmode / no-pme / no-psnr / no-ssim / log-level=2 / input-csp=1 / input-res=1920x800 / interlace=0 / total-frames=374336 / level-idc=41 / high-tier=1 / uhd-bd=0 / ref=3 / no-allow-non-conformance / no-repeat-headers / annexb / no-aud / no-hrd / info / hash=0 / no-temporal-layers / open-gop / min-keyint=25 / keyint=250 / bframes=4 / b-adapt=2 / b-pyramid / bframe-bias=0 / rc-lookahead=20 / lookahead-slices=5 / scenecut=40 / no-intra-refresh / ctu=64 / min-cu-size=8 / no-rect / no-amp / max-tu-size=32 / tu-inter-depth=1 / tu-intra-depth=1 / limit-tu=0 / rdoq-level=0 / dynamic-rd=0.00 / no-ssim-rd / signhide / no-tskip / nr-intra=0 / nr-inter=0 / no-constrained-intra / strong-intra-smoothing / max-merge=2 / limit-refs=3 / no-limit-modes / me=1 / subme=2 / merange=57 / temporal-mvp / weightp / no-weightb / no-analyze-src-pics / deblock=0:0 / sao / no-sao-non-deblock / rd=3 / no-early-skip / rskip / no-fast-intra / no-tskip-fast / no-cu-lossless / no-b-intra / rdpenalty=0 / psy-rd=2.00 / psy-rdoq=0.00 / no-rd-refine / analysis-mode=0 / no-lossless / cbqpoffs=0 / crqpoffs=0 / rc=abr / bitrate=4000 / qcomp=0.60 / qpstep=4 / stats-write=0 / stats-read=2 / cplxblur=20.0 / qblur=0.5 / ipratio=1.40 / pbratio=1.30 / aq-mode=1 / aq-strength=1.00 / cutree / zone-count=0 / no-strict-cbr / qg-size=32 / no-rc-grain / qpmax=69 / qpmin=0 / sar=1 / overscan=0 / videoformat=5 / range=0 / colorprim=2 / transfer=2 / colormatrix=2 / chromaloc=0 / display-window=0 / max-cll=0,0 / min-luma=0 / max-luma=1023 / log2-max-poc-lsb=8 / vui-timing-info / vui-hrd-info / slices=1 / opt-qp-pps / opt-ref-list-length-pps / no-multi-pass-opt-rps / scenecut-bias=0.05 / no-opt-cu-delta-qp / no-aq-motion / no-hdr / no-hdr-opt / refine-level=5 / no-limit-sao
Default : Yes
Forced : No

Audio
ID : 2
Format : AC-3
Format/Info : Audio Coding 3
Commercial name : Dolby Digital
Codec ID : A_AC3
Duration : 1 h 44 min
Bit rate mode : Constant
Bit rate : 448 kb/s
Channel(s) : 6 channels
Channel layout : L R C LFE Ls Rs
Sampling rate : 48.0 kHz
Frame rate : 31.250 FPS (1536 SPF)
Compression mode : Lossy
Stream size : 334 MiB (10%)
Title : DUB
Language : Russian
Service kind : Complete Main
Default : Yes
Forced : No

Text
ID : 3
Format : UTF-8
Codec ID : S_TEXT/UTF8
Codec ID/Info : UTF-8 Plain Text
Duration : 1 h 42 min
Bit rate : 69 b/s
Count of elements : 874
Stream size : 52.2 KiB (0%)
Language : Russian
Default : No
Forced : No

Menu
00:00:00.000 : en:Years Ago/Main Titles
00:05:17.191 : en:The Simulation
00:09:21.310 : en:Interrogating Mystique
00:12:19.405 : en:A Cure for Mystique
00:17:53.071 : en:The Rally
00:23:09.137 : en:Transformation
00:30:57.897 : en:Jean's Return
00:33:57.493 : en:Rescue and Abandonment
00:38:02.363 : en:Jean's True Power
00:43:48.167 : en:Out of Control
00:50:36.742 : en:Remembering the Professor
00:55:37.083 : en:Magneto's Army
00:58:02.854 : en:Saving Xavier's School
01:01:13.878 : en:Public Threat
01:03:56.749 : en:At Magneto's Camp
01:08:16.801 : en:Raid
01:10:40.569 : en:Final Stand
01:13:21.313 : en:Assault on Alcatraz
01:19:11.538 : en:Holding the Line
01:22:10.091 : en:Protecting the Cure
01:25:03.848 : en:One of Them
01:29:41.751 : en:Because of Love
01:34:25.701 : en:As They Should Be
01:36:02.590 : en:Powerless/End Titles


скриншот   скриншот   скриншот  



Росомаха. Бессмертный - The Wolverine«When he's most vulnerable, he's most dangerous»

Год выпуска: 2013
Страна: США, Великобритания
Жанр: фантастика, боевик, приключения

Продолжительность: 02:18:05
Перевод: Дубляж
Субтитры: русские

Режиссер: Джеймс Мэнголд
В ролях: Хью Джекман, Тао Окамото, Рила Фукусима, Светлана Ходченкова, Уилл Юн Ли, Харукико Яманоути, Хироюки Санада, Брайан Ти, Фамке Янссен, Кен Ямамура, Иэн МакКеллен, Патрик Стюарт

Описание:
Новая глава приключений Росомахи развернётся в Японии, где Логану предстоит выяснить, что острее — когти Росомахи или меч Серебряного Самурая.

Мировая премьера: 16 июля 2013


Качество: BDRip 1080p by DD2D3
Формат: MKV
Видео кодек: V_MPEGH/ISO/HEVC
Аудио кодек: DTS
Видео: V_MPEGH/ISO/HEVC; 1920x800 (2.40:1); 4003 Kbps; 59,940 fps; 0,043 bpp
Аудио: русский; DTS; 768 Kbps; CBR; 6 ch; 24 bit
Навигация по главам: нет



General
Unique ID : 201969636284420615809067480879782469986 (0x97F1EFE1B42B3FD8A2E89964FDF4A162)
Complete name : D:\Marvel Comics (2000 - ....) BDRip - HEVC 1080p 10 bit 60 FPS\X-Men film series (2000 - .....) BDRip - HEVC 1080p 10 bit 60 FPS\The Wolverine (2013) BDRip - HEVC 1080p 10bit 60 FPS.mkv
Format : Matroska
Format version : Version 4
File size : 4.61 GiB
Duration : 2 h 18 min
Overall bit rate : 4 777 kb/s
Movie name : Rip by from DD2D3
Encoded date : UTC 2020-10-14 16:09:37
Writing application : mkvmerge v10.0.0 ('To Drown In You') 32bit
Writing library : libebml v1.3.4 + libmatroska v1.4.5
Attachments : poster

Video
ID : 1
Format : HEVC
Format/Info : High Efficiency Video Coding
Format profile : Main 10@L4.1@Main
Codec ID : V_MPEGH/ISO/HEVC
Duration : 2 h 18 min
Bit rate : 4 004 kb/s
Width : 1 920 pixels
Height : 800 pixels
Display aspect ratio : 2.40:1
Frame rate mode : Constant
Frame rate : 59.940 (60000/1001) FPS
Color space : YUV
Chroma subsampling : 4:2:0
Bit depth : 10 bits
Bits/(Pixel*Frame) : 0.043
Stream size : 3.86 GiB (84%)
Writing library : x265 2.3+33-0b7d54dbb71a87a0:[Windows][MSVC 1800][64 bit] 10bit: KG7x [x265.ru]
Encoding settings : cpuid=1173503 / frame-threads=2 / numa-pools=4 / wpp / no-pmode / no-pme / no-psnr / no-ssim / log-level=2 / input-csp=1 / input-res=1920x800 / interlace=0 / total-frames=496613 / level-idc=41 / high-tier=1 / uhd-bd=0 / ref=3 / no-allow-non-conformance / no-repeat-headers / annexb / no-aud / no-hrd / info / hash=0 / no-temporal-layers / open-gop / min-keyint=25 / keyint=250 / bframes=4 / b-adapt=2 / b-pyramid / bframe-bias=0 / rc-lookahead=20 / lookahead-slices=5 / scenecut=40 / no-intra-refresh / ctu=64 / min-cu-size=8 / no-rect / no-amp / max-tu-size=32 / tu-inter-depth=1 / tu-intra-depth=1 / limit-tu=0 / rdoq-level=0 / dynamic-rd=0.00 / no-ssim-rd / signhide / no-tskip / nr-intra=0 / nr-inter=0 / no-constrained-intra / strong-intra-smoothing / max-merge=2 / limit-refs=3 / no-limit-modes / me=1 / subme=2 / merange=57 / temporal-mvp / weightp / no-weightb / no-analyze-src-pics / deblock=0:0 / sao / no-sao-non-deblock / rd=3 / no-early-skip / rskip / no-fast-intra / no-tskip-fast / no-cu-lossless / no-b-intra / rdpenalty=0 / psy-rd=2.00 / psy-rdoq=0.00 / no-rd-refine / analysis-mode=0 / no-lossless / cbqpoffs=0 / crqpoffs=0 / rc=abr / bitrate=4000 / qcomp=0.60 / qpstep=4 / stats-write=0 / stats-read=2 / cplxblur=20.0 / qblur=0.5 / ipratio=1.40 / pbratio=1.30 / aq-mode=1 / aq-strength=1.00 / cutree / zone-count=0 / no-strict-cbr / qg-size=32 / no-rc-grain / qpmax=69 / qpmin=0 / sar=1 / overscan=0 / videoformat=5 / range=0 / colorprim=2 / transfer=2 / colormatrix=2 / chromaloc=0 / display-window=0 / max-cll=0,0 / min-luma=0 / max-luma=1023 / log2-max-poc-lsb=8 / vui-timing-info / vui-hrd-info / slices=1 / opt-qp-pps / opt-ref-list-length-pps / no-multi-pass-opt-rps / scenecut-bias=0.05 / no-opt-cu-delta-qp / no-aq-motion / no-hdr / no-hdr-opt / refine-level=5 / no-limit-sao
Default : Yes
Forced : No

Audio
ID : 2
Format : DTS
Format/Info : Digital Theater Systems
Codec ID : A_DTS
Duration : 2 h 18 min
Bit rate mode : Constant
Bit rate : 768 kb/s
Channel(s) : 6 channels
Channel layout : C L R Ls Rs LFE
Sampling rate : 48.0 kHz
Frame rate : 93.750 FPS (512 SPF)
Bit depth : 24 bits
Compression mode : Lossy
Stream size : 759 MiB (16%)
Title : DTS (Дублированный) Blu-ray CEE
Language : Russian
Default : Yes
Forced : No

Text
ID : 3
Format : UTF-8
Codec ID : S_TEXT/UTF8
Codec ID/Info : UTF-8 Plain Text
Duration : 2 h 9 min
Bit rate : 45 b/s
Count of elements : 1041
Stream size : 43.4 KiB (0%)
Title : Русские
Language : Russian
Default : No
Forced : No


скриншот   скриншот   скриншот  



Люди Икс: Дни минувшего будущего (та часть, где показаны события будущего)

Таймлайн B: учитываются события «Дней минувшего будущего», Мистик не становится жертвой экспериментов, программа по созданию Сентинелей не существует. Люди Икс: Дни минувшего будущего (та часть, где показаны события в 1973 году и успешный финал)


Люди Икс. Апокалипсис - X-Men. Apocalypse «Выживет сильнейший»

Год выпуска: 2016
Страна: США
Жанр: фантастика, боевик, приключения

Продолжительность: 02:18:07
Перевод: Дубляж
Субтитры: русские

Режиссер: Брайан Сингер
В ролях: Джеймс МакЭвой, Майкл Фассбендер, Дженнифер Лоуренс, Оливия Манн, Софи Тернер, Роуз Бирн, Оскар Айзек, Николас Холт, Эван Питерс, Тай Шеридан, Александра Шипп, Моник Гэндертон, Коди Смит-МакФи, Лукас Тилл, Джош Хелман, Стэн Ли, Бен Харди

Описание:
События «Дней Минувшего Будущего» оказали колоссальное влияние на мир, где мутанты и люди борются за свое место под Солнцем. В это нелегкое время Людям Икс предстоит столкнуться со своим самым опасным противником — древним мутантом Апокалипсисом, существом, схватка с которым может стать последней не только для мутантов, но и в принципе для всего человечества. В поисках способа победы над неуязвимым и бессмертным монстром Людям Икс предстоит узнать больше о происхождении своего вида. Но Апокалипсис неимоверно силен, и вероятность победы все уменьшается, ведь он твердо убежден, что только сильнейшие имеют право на выживание…

Мировая премьера: 9 мая 2016


Качество: BDRip 1080p by DD2D3
Формат: MKV
Видео кодек: V_MPEGH/ISO/HEVC
Аудио кодек: AC3
Видео: V_MPEGH/ISO/HEVC; 1920x1080 (16:9); 5002 Kbps; 60 fps; 0,040 bpp
Аудио: русский; AC3; 448 Kbps; CBR; 6 ch
Навигация по главам: нет



General
Unique ID : 174771803942270754257675364818615588457 (0x837BD33770AD2DF695CE30606804D669)
Complete name : D:\Marvel Comics (2000 - ....) BDRip - HEVC 1080p 10 bit 60 FPS\X-Men film series (2000 - .....) BDRip - HEVC 1080p 10 bit 60 FPS\X-Men. Apocalypse [Open Matte] (2016) BDRip - HEVC 1080p 10bit 60 FPS.mkv
Format : Matroska
Format version : Version 4
File size : 5.26 GiB
Duration : 2 h 18 min
Overall bit rate : 5 455 kb/s
Movie name : Rip by from DD2D3
Encoded date : UTC 2020-10-20 17:46:42
Writing application : mkvmerge v10.0.0 ('To Drown In You') 32bit
Writing library : libebml v1.3.4 + libmatroska v1.4.5
Attachments : poster

Video
ID : 1
Format : HEVC
Format/Info : High Efficiency Video Coding
Format profile : Main 10@L4.1@Main
Codec ID : V_MPEGH/ISO/HEVC
Duration : 2 h 18 min
Bit rate : 5 002 kb/s
Width : 1 920 pixels
Height : 1 080 pixels
Display aspect ratio : 16:9
Frame rate mode : Constant
Frame rate : 60.000 FPS
Color space : YUV
Chroma subsampling : 4:2:0
Bit depth : 10 bits
Bits/(Pixel*Frame) : 0.040
Stream size : 4.83 GiB (92%)
Writing library : x265 2.3+33-0b7d54dbb71a87a0:[Windows][MSVC 1800][64 bit] 10bit: KG7x [x265.ru]
Encoding settings : cpuid=1173503 / frame-threads=2 / numa-pools=4 / wpp / no-pmode / no-pme / no-psnr / no-ssim / log-level=2 / input-csp=1 / input-res=1920x1080 / interlace=0 / total-frames=497278 / level-idc=41 / high-tier=1 / uhd-bd=0 / ref=3 / no-allow-non-conformance / no-repeat-headers / annexb / no-aud / no-hrd / info / hash=0 / no-temporal-layers / open-gop / min-keyint=25 / keyint=250 / bframes=4 / b-adapt=2 / b-pyramid / bframe-bias=0 / rc-lookahead=20 / lookahead-slices=6 / scenecut=40 / no-intra-refresh / ctu=64 / min-cu-size=8 / no-rect / no-amp / max-tu-size=32 / tu-inter-depth=1 / tu-intra-depth=1 / limit-tu=0 / rdoq-level=0 / dynamic-rd=0.00 / no-ssim-rd / signhide / no-tskip / nr-intra=0 / nr-inter=0 / no-constrained-intra / strong-intra-smoothing / max-merge=2 / limit-refs=3 / no-limit-modes / me=1 / subme=2 / merange=57 / temporal-mvp / weightp / no-weightb / no-analyze-src-pics / deblock=0:0 / sao / no-sao-non-deblock / rd=3 / no-early-skip / rskip / no-fast-intra / no-tskip-fast / no-cu-lossless / no-b-intra / rdpenalty=0 / psy-rd=2.00 / psy-rdoq=0.00 / no-rd-refine / analysis-mode=0 / no-lossless / cbqpoffs=0 / crqpoffs=0 / rc=abr / bitrate=5000 / qcomp=0.60 / qpstep=4 / stats-write=0 / stats-read=2 / cplxblur=20.0 / qblur=0.5 / ipratio=1.40 / pbratio=1.30 / aq-mode=1 / aq-strength=1.00 / cutree / zone-count=0 / no-strict-cbr / qg-size=32 / no-rc-grain / qpmax=69 / qpmin=0 / sar=1 / overscan=0 / videoformat=5 / range=0 / colorprim=2 / transfer=2 / colormatrix=2 / chromaloc=0 / display-window=0 / max-cll=0,0 / min-luma=0 / max-luma=1023 / log2-max-poc-lsb=8 / vui-timing-info / vui-hrd-info / slices=1 / opt-qp-pps / opt-ref-list-length-pps / no-multi-pass-opt-rps / scenecut-bias=0.05 / no-opt-cu-delta-qp / no-aq-motion / no-hdr / no-hdr-opt / refine-level=5 / no-limit-sao
Default : Yes
Forced : No

Audio
ID : 2
Format : AC-3
Format/Info : Audio Coding 3
Commercial name : Dolby Digital
Codec ID : A_AC3
Duration : 2 h 18 min
Bit rate mode : Constant
Bit rate : 448 kb/s
Channel(s) : 6 channels
Channel layout : L R C LFE Ls Rs
Sampling rate : 48.0 kHz
Frame rate : 31.250 FPS (1536 SPF)
Compression mode : Lossy
Stream size : 442 MiB (8%)
Language : Russian
Service kind : Complete Main
Default : Yes
Forced : No

Text
ID : 3
Format : UTF-8
Codec ID : S_TEXT/UTF8
Codec ID/Info : UTF-8 Plain Text
Duration : 2 h 16 min
Bit rate : 58 b/s
Count of elements : 1442
Stream size : 59.1 KiB (0%)
Language : Russian
Default : No
Forced : No


скриншот   скриншот   скриншот  



Люди Икс. Тёмный Феникс - Dark Phoenix«A Phoenix will rise. The X-Men will fall»

Год выпуска: 2019
Страна: США, Канада
Жанр: фантастика, боевик, приключения

Продолжительность: 01:53:56
Перевод: Дубляж
Субтитры: русские

Режиссер: Саймон Кинберг
В ролях: Софи Тернер, Джеймс МакЭвой, Майкл Фассбендер, Дженнифер Лоуренс, Николас Холт, Тай Шеридан, Александра Шипп, Эван Питерс, Коди Смит-МакФи, Джессика Честейн, Оливия Манн, Ато Эссонда

Описание:
В былые годы Джина была обычной девушкой. Жизнь её проходила достаточно спокойно. Но через некоторое время девушка стала замечать некоторые перемены в самой себе. Самостоятельно она не могла понять, что с ней происходит, поэтому обратилась за помощью к доктору Ксавьеру. Он мог ответить Джине на все вопросы. Оказалось, что Джина имеет сверхъестественные способности, которые можно использовать как во благо, так и во зло. Ксавьер помог пациентке привыкнуть к этим особенностям и научил ими пользоваться. Он принял Джину в команду Икс. Поначалу девушка боролась за свет, уничтожая силы зла, но потом внезапно стала заложницей собственной силы, которая планомерно поглощала её изнутри, производя замену положительных черт на отрицательные. Те, кто ещё недавно были друзьями Джине, в одночасье стали врагами.

Мировая премьера: 5 июня 2019


Качество: BDRip 1080p by DD2D3
Формат: MKV
Видео кодек: V_MPEGH/ISO/HEVC
Аудио кодек: DTS
Видео: V_MPEGH/ISO/HEVC;1920x800 (2.40:1);4504 Kbps;59,940 fps;0,049 bpp
Аудио: русский; DTS; 768 Kbps; CBR; 6 ch; 24 bit
Навигация по главам: есть



General
Unique ID : 216252953194233755318127998330885314782 (0xA2B0CDC69DC7801FBB5C6256DD5B18DE)
Complete name : D:\Marvel Comics (2000 - ....) BDRip - HEVC 1080p 10 bit 60 FPS\X-Men film series (2000 - .....) BDRip - HEVC 1080p 10 bit 60 FPS\Dark Phoenix (2019) BDRip - HEVC 1080p 10bit 60 FPS.mkv
Format : Matroska
Format version : Version 4
File size : 4.20 GiB
Duration : 1 h 53 min
Overall bit rate : 5 278 kb/s
Movie name : Rip by from DD2D3
Encoded date : UTC 2020-10-24 06:49:17
Writing application : mkvmerge v10.0.0 ('To Drown In You') 32bit
Writing library : libebml v1.3.4 + libmatroska v1.4.5
Attachments : poster

Video
ID : 1
Format : HEVC
Format/Info : High Efficiency Video Coding
Format profile : Main 10@L4.1@Main
Codec ID : V_MPEGH/ISO/HEVC
Duration : 1 h 53 min
Bit rate : 4 504 kb/s
Width : 1 920 pixels
Height : 800 pixels
Display aspect ratio : 2.40:1
Frame rate mode : Constant
Frame rate : 59.940 (60000/1001) FPS
Color space : YUV
Chroma subsampling : 4:2:0
Bit depth : 10 bits
Bits/(Pixel*Frame) : 0.049
Stream size : 3.58 GiB (85%)
Writing library : x265 2.3+33-0b7d54dbb71a87a0:[Windows][MSVC 1800][64 bit] 10bit: KG7x [x265.ru]
Encoding settings : cpuid=1173503 / frame-threads=2 / numa-pools=4 / wpp / no-pmode / no-pme / no-psnr / no-ssim / log-level=2 / input-csp=1 / input-res=1920x800 / interlace=0 / total-frames=409771 / level-idc=41 / high-tier=1 / uhd-bd=0 / ref=3 / no-allow-non-conformance / no-repeat-headers / annexb / no-aud / no-hrd / info / hash=0 / no-temporal-layers / open-gop / min-keyint=25 / keyint=250 / bframes=4 / b-adapt=2 / b-pyramid / bframe-bias=0 / rc-lookahead=20 / lookahead-slices=5 / scenecut=40 / no-intra-refresh / ctu=64 / min-cu-size=8 / no-rect / no-amp / max-tu-size=32 / tu-inter-depth=1 / tu-intra-depth=1 / limit-tu=0 / rdoq-level=0 / dynamic-rd=0.00 / no-ssim-rd / signhide / no-tskip / nr-intra=0 / nr-inter=0 / no-constrained-intra / strong-intra-smoothing / max-merge=2 / limit-refs=3 / no-limit-modes / me=1 / subme=2 / merange=57 / temporal-mvp / weightp / no-weightb / no-analyze-src-pics / deblock=0:0 / sao / no-sao-non-deblock / rd=3 / no-early-skip / rskip / no-fast-intra / no-tskip-fast / no-cu-lossless / no-b-intra / rdpenalty=0 / psy-rd=2.00 / psy-rdoq=0.00 / no-rd-refine / analysis-mode=0 / no-lossless / cbqpoffs=0 / crqpoffs=0 / rc=abr / bitrate=4500 / qcomp=0.60 / qpstep=4 / stats-write=0 / stats-read=2 / cplxblur=20.0 / qblur=0.5 / ipratio=1.40 / pbratio=1.30 / aq-mode=1 / aq-strength=1.00 / cutree / zone-count=0 / no-strict-cbr / qg-size=32 / no-rc-grain / qpmax=69 / qpmin=0 / sar=1 / overscan=0 / videoformat=5 / range=0 / colorprim=2 / transfer=2 / colormatrix=2 / chromaloc=0 / display-window=0 / max-cll=0,0 / min-luma=0 / max-luma=1023 / log2-max-poc-lsb=8 / vui-timing-info / vui-hrd-info / slices=1 / opt-qp-pps / opt-ref-list-length-pps / no-multi-pass-opt-rps / scenecut-bias=0.05 / no-opt-cu-delta-qp / no-aq-motion / no-hdr / no-hdr-opt / refine-level=5 / no-limit-sao
Default : Yes
Forced : No

Audio
ID : 2
Format : DTS
Format/Info : Digital Theater Systems
Codec ID : A_DTS
Duration : 1 h 53 min
Bit rate mode : Constant
Bit rate : 768 kb/s
Channel(s) : 6 channels
Channel layout : C L R Ls Rs LFE
Sampling rate : 48.0 kHz
Frame rate : 93.750 FPS (512 SPF)
Bit depth : 24 bits
Compression mode : Lossy
Stream size : 626 MiB (15%)
Title : Дубляж
Language : Russian
Default : Yes
Forced : No

Text
ID : 3
Format : UTF-8
Codec ID : S_TEXT/UTF8
Codec ID/Info : UTF-8 Plain Text
Duration : 1 h 52 min
Bit rate : 63 b/s
Count of elements : 1137
Stream size : 52.9 KiB (0%)
Title : Full
Language : Russian
Default : No
Forced : No

Menu
00:00:00.000 : en:00:00:00.000
00:03:28.875 : en:00:03:28.875
00:07:34.621 : en:00:07:34.621
00:11:42.201 : en:00:11:42.201
00:15:44.110 : en:00:15:44.110
00:18:37.408 : en:00:18:37.408
00:25:24.481 : en:00:25:24.481
00:31:40.357 : en:00:31:40.357
00:34:19.307 : en:00:34:19.307
00:40:07.447 : en:00:40:07.447
00:44:36.090 : en:00:44:36.090
00:49:07.778 : en:00:49:07.778
00:55:38.168 : en:00:55:38.168
00:58:57.409 : en:00:58:57.409
01:02:57.190 : en:01:02:57.190
01:10:40.111 : en:01:10:40.111
01:13:42.418 : en:01:13:42.418
01:19:33.477 : en:01:19:33.477
01:22:35.701 : en:01:22:35.701
01:25:49.061 : en:01:25:49.061
01:30:38.350 : en:01:30:38.350
01:32:48.188 : en:01:32:48.188
01:37:59.624 : en:01:37:59.624
01:45:01.045 : en:01:45:01.045


скриншот   скриншот   скриншот  



Дэдпул - Deadpool«Стань свидетелем, как он кончит»

Год выпуска: 2016
Страна: США
Жанр: фантастика, боевик, приключения

Продолжительность: 01:48:09
Перевод: Дубляж
Субтитры: русские

Режиссер: Тим Миллер
В ролях: Райан Рейнольдс, Морена Баккарин, Эд Скрейн, Брианна Хилдебранд, ТиДжей Миллер, Джина Карано, Стефан Капичич, Стайл Дэйн, Стэн Ли, Лесли Уггэмс, Джед Риис, Каран Сони

Описание:
Уэйд Уилсон — наемник. Будучи побочным продуктом программы вооруженных сил под названием «Оружие Х», Уилсон приобрел невероятную силу, проворство и исцеляющий фактор. Но страшной ценой: его клеточная структура постоянно меняется, а его здравомыслие сомнительно. Все чего Уилсон хочет — это держаться на плаву в социальной выгребной яме. Но течение в ней слишком быстрое.

Мировая премьера: 21 января 2016


Качество: BDRip 1080p by DD2D3
Формат: MKV
Видео кодек: V_MPEGH/ISO/HEVC
Аудио кодек: AC3
Видео: V_MPEGH/ISO/HEVC; 1920x804 (2.40:1); 4001 Kbps; 59,940 fps; 0,043 bpp
Аудио: русский; AC3; 384 Kbps; CBR; 6 ch
Навигация по главам: нет



General
Unique ID : 220082920605438610419911379052630260931 (0xA5926DBF8F5210EFA8B5833E9FAE3CC3)
Complete name : D:\Marvel Comics (2000 - ....) BDRip - HEVC 1080p 10 bit 60 FPS\X-Men film series (2000 - .....) BDRip - HEVC 1080p 10 bit 60 FPS\Deadpool (2016) BDRip - HEVC 1080p 10bit 60 FPS.mkv
Format : Matroska
Format version : Version 4
File size : 3.32 GiB
Duration : 1 h 48 min
Overall bit rate : 4 389 kb/s
Movie name : Rip by from DD2D3
Encoded date : UTC 2020-10-29 12:17:57
Writing application : mkvmerge v10.0.0 ('To Drown In You') 32bit
Writing library : libebml v1.3.4 + libmatroska v1.4.5
Attachments : poster

Video
ID : 1
Format : HEVC
Format/Info : High Efficiency Video Coding
Format profile : Main 10@L4.1@Main
Codec ID : V_MPEGH/ISO/HEVC
Duration : 1 h 48 min
Bit rate : 4 002 kb/s
Width : 1 920 pixels
Height : 804 pixels
Display aspect ratio : 2.40:1
Frame rate mode : Constant
Frame rate : 59.940 (60000/1001) FPS
Color space : YUV
Chroma subsampling : 4:2:0
Bit depth : 10 bits
Bits/(Pixel*Frame) : 0.043
Stream size : 3.02 GiB (91%)
Writing library : x265 2.3+33-0b7d54dbb71a87a0:[Windows][MSVC 1800][64 bit] 10bit: KG7x [x265.ru]
Encoding settings : cpuid=1173503 / frame-threads=2 / numa-pools=4 / wpp / no-pmode / no-pme / no-psnr / no-ssim / log-level=2 / input-csp=1 / input-res=1920x804 / interlace=0 / total-frames=388781 / level-idc=41 / high-tier=1 / uhd-bd=0 / ref=3 / no-allow-non-conformance / no-repeat-headers / annexb / no-aud / no-hrd / info / hash=0 / no-temporal-layers / open-gop / min-keyint=25 / keyint=250 / bframes=4 / b-adapt=2 / b-pyramid / bframe-bias=0 / rc-lookahead=20 / lookahead-slices=5 / scenecut=40 / no-intra-refresh / ctu=64 / min-cu-size=8 / no-rect / no-amp / max-tu-size=32 / tu-inter-depth=1 / tu-intra-depth=1 / limit-tu=0 / rdoq-level=0 / dynamic-rd=0.00 / no-ssim-rd / signhide / no-tskip / nr-intra=0 / nr-inter=0 / no-constrained-intra / strong-intra-smoothing / max-merge=2 / limit-refs=3 / no-limit-modes / me=1 / subme=2 / merange=57 / temporal-mvp / weightp / no-weightb / no-analyze-src-pics / deblock=0:0 / sao / no-sao-non-deblock / rd=3 / no-early-skip / rskip / no-fast-intra / no-tskip-fast / no-cu-lossless / no-b-intra / rdpenalty=0 / psy-rd=2.00 / psy-rdoq=0.00 / no-rd-refine / analysis-mode=0 / no-lossless / cbqpoffs=0 / crqpoffs=0 / rc=abr / bitrate=4000 / qcomp=0.60 / qpstep=4 / stats-write=0 / stats-read=2 / cplxblur=20.0 / qblur=0.5 / ipratio=1.40 / pbratio=1.30 / aq-mode=1 / aq-strength=1.00 / cutree / zone-count=0 / no-strict-cbr / qg-size=32 / no-rc-grain / qpmax=69 / qpmin=0 / sar=1 / overscan=0 / videoformat=5 / range=0 / colorprim=2 / transfer=2 / colormatrix=2 / chromaloc=0 / display-window=0 / max-cll=0,0 / min-luma=0 / max-luma=1023 / log2-max-poc-lsb=8 / vui-timing-info / vui-hrd-info / slices=1 / opt-qp-pps / opt-ref-list-length-pps / no-multi-pass-opt-rps / scenecut-bias=0.05 / no-opt-cu-delta-qp / no-aq-motion / no-hdr / no-hdr-opt / refine-level=5 / no-limit-sao
Default : Yes
Forced : No

Audio
ID : 2
Format : AC-3
Format/Info : Audio Coding 3
Commercial name : Dolby Digital
Codec ID : A_AC3
Duration : 1 h 48 min
Bit rate mode : Constant
Bit rate : 384 kb/s
Channel(s) : 6 channels
Channel layout : L R C LFE Ls Rs
Sampling rate : 48.0 kHz
Frame rate : 31.250 FPS (1536 SPF)
Compression mode : Lossy
Delay relative to video : 2 s 0 ms
Stream size : 297 MiB (9%)
Title : DUB biTunesB
Language : Russian
Service kind : Complete Main
Default : Yes
Forced : No

Text
ID : 3
Format : UTF-8
Codec ID : S_TEXT/UTF8
Codec ID/Info : UTF-8 Plain Text
Duration : 1 h 47 min
Bit rate : 87 b/s
Count of elements : 1404
Stream size : 68.8 KiB (0%)
Language : Russian
Default : No
Forced : No

Menu
00:00:00.000 : en:1
00:03:02.724 : en:2
00:05:51.017 : en:3
00:09:28.818 : en:4
00:13:17.087 : en:5
00:16:46.713 : en:6
00:20:10.541 : en:7
00:22:04.404 : en:8
00:27:07.623 : en:9
00:31:56.953 : en:10
00:36:49.704 : en:11
00:41:04.166 : en:12
00:44:43.760 : en:13
00:46:54.599 : en:14
00:50:08.960 : en:15
00:53:16.022 : en:16
00:55:31.032 : en:17
00:59:05.746 : en:18
01:03:03.233 : en:19
01:07:04.432 : en:20
01:09:13.561 : en:21
01:12:27.713 : en:22
01:16:44.386 : en:23
01:20:41.706 : en:24
01:25:51.390 : en:25
01:31:01.783 : en:26
01:34:44.964 : en:27
01:39:50.728 : en:28


скриншот   скриншот   скриншот  




Дэдпул 2 - Deadpool 2«Беда не приходит одна»

Год выпуска: 2018
Страна: США
Жанр: фантастика, боевик, приключения

Продолжительность: 02:13:59
Перевод: Дубляж
Субтитры: русские

Режиссер: Дэвид Литч
В ролях: Джош Бролин, Райан Рейнольдс, Морена Баккарин, Зази Битц, Брианна Хилдебранд, ТиДжей Миллер, Джек Кеси, Джулиан Деннисон, Лесли Аггамс, Каран Сони, Брэд Питт, Билл Скарсгард, Терри Крюс, Роб Делани

Описание:
Тот самый герой, славящийся своей болтливостью и неповторимостью, вернулся. Но только теперь он намного разрушительной и масштабней, ну и скуднее, чем ранее. В свете последних событий жизнь Дэдпула круто поменялась. Он уже и забывать стал, что такое быть настоящим героем, что такое помогать невиновным, да и вообще быть кому-то нужным. Но однажды судьба предоставляет Дэдпулу шанс вернуться на пьедестал. Правда, для этого ему придётся сильно постараться и поднапрячься. Ему придётся вспомнить, что такое истинная дружба, какова ценность семьи. Впереди у него серьёзная битва, победителем в которой может быть только один герой.

Мировая премьера: 1 мая 2018


Качество: BDRip 1080p by DD2D3
Формат: MKV
Видео кодек: V_MPEGH/ISO/HEVC
Аудио кодек: DTS
Видео: V_MPEGH/ISO/HEVC;1920x804 (2.40:1);4001 Kbps;59,940 fps;0,043 bpp
Аудио: русский; DTS; 768 Kbps; CBR; 6 ch; 24 bit
Навигация по главам: есть



General
Unique ID : 215504823914937136018098619744861467055 (0xA220B827918A115BBFBC214D0F56B1AF)
Complete name : D:\Marvel Comics (2000 - ....) BDRip - HEVC 1080p 10 bit 60 FPS\X-Men film series (2000 - .....) BDRip - HEVC 1080p 10 bit 60 FPS\Deadpool 2 [Super Duper Cut] (2018) BDRip - HEVC 1080p 10bit 60 FPS.mkv
Format : Matroska
Format version : Version 4
File size : 4.47 GiB
Duration : 2 h 13 min
Overall bit rate : 4 777 kb/s
Movie name : Rip by from DD2D3
Encoded date : UTC 2020-11-01 19:31:34
Writing application : mkvmerge v10.0.0 ('To Drown In You') 32bit
Writing library : libebml v1.3.4 + libmatroska v1.4.5
Attachments : poster

Video
ID : 1
Format : HEVC
Format/Info : High Efficiency Video Coding
Format profile : Main 10@L4.1@Main
Codec ID : V_MPEGH/ISO/HEVC
Duration : 2 h 13 min
Bit rate : 4 002 kb/s
Width : 1 920 pixels
Height : 804 pixels
Display aspect ratio : 2.40:1
Frame rate mode : Constant
Frame rate : 59.940 (60000/1001) FPS
Color space : YUV
Chroma subsampling : 4:2:0
Bit depth : 10 bits
Bits/(Pixel*Frame) : 0.043
Stream size : 3.75 GiB (84%)
Writing library : x265 2.3+33-0b7d54dbb71a87a0:[Windows][MSVC 1800][64 bit] 10bit: KG7x [x265.ru]
Encoding settings : cpuid=1173503 / frame-threads=2 / numa-pools=4 / wpp / no-pmode / no-pme / no-psnr / no-ssim / log-level=2 / input-csp=1 / input-res=1920x804 / interlace=0 / total-frames=481888 / level-idc=41 / high-tier=1 / uhd-bd=0 / ref=3 / no-allow-non-conformance / no-repeat-headers / annexb / no-aud / no-hrd / info / hash=0 / no-temporal-layers / open-gop / min-keyint=25 / keyint=250 / bframes=4 / b-adapt=2 / b-pyramid / bframe-bias=0 / rc-lookahead=20 / lookahead-slices=5 / scenecut=40 / no-intra-refresh / ctu=64 / min-cu-size=8 / no-rect / no-amp / max-tu-size=32 / tu-inter-depth=1 / tu-intra-depth=1 / limit-tu=0 / rdoq-level=0 / dynamic-rd=0.00 / no-ssim-rd / signhide / no-tskip / nr-intra=0 / nr-inter=0 / no-constrained-intra / strong-intra-smoothing / max-merge=2 / limit-refs=3 / no-limit-modes / me=1 / subme=2 / merange=57 / temporal-mvp / weightp / no-weightb / no-analyze-src-pics / deblock=0:0 / sao / no-sao-non-deblock / rd=3 / no-early-skip / rskip / no-fast-intra / no-tskip-fast / no-cu-lossless / no-b-intra / rdpenalty=0 / psy-rd=2.00 / psy-rdoq=0.00 / no-rd-refine / analysis-mode=0 / no-lossless / cbqpoffs=0 / crqpoffs=0 / rc=abr / bitrate=4000 / qcomp=0.60 / qpstep=4 / stats-write=0 / stats-read=2 / cplxblur=20.0 / qblur=0.5 / ipratio=1.40 / pbratio=1.30 / aq-mode=1 / aq-strength=1.00 / cutree / zone-count=0 / no-strict-cbr / qg-size=32 / no-rc-grain / qpmax=69 / qpmin=0 / sar=1 / overscan=0 / videoformat=5 / range=0 / colorprim=2 / transfer=2 / colormatrix=2 / chromaloc=0 / display-window=0 / max-cll=0,0 / min-luma=0 / max-luma=1023 / log2-max-poc-lsb=8 / vui-timing-info / vui-hrd-info / slices=1 / opt-qp-pps / opt-ref-list-length-pps / no-multi-pass-opt-rps / scenecut-bias=0.05 / no-opt-cu-delta-qp / no-aq-motion / no-hdr / no-hdr-opt / refine-level=5 / no-limit-sao
Default : Yes
Forced : No

Audio
ID : 2
Format : DTS
Format/Info : Digital Theater Systems
Codec ID : A_DTS
Duration : 2 h 13 min
Bit rate mode : Constant
Bit rate : 768 kb/s
Channel(s) : 6 channels
Channel layout : C L R Ls Rs LFE
Sampling rate : 48.0 kHz
Frame rate : 93.750 FPS (512 SPF)
Bit depth : 24 bits
Compression mode : Lossy
Stream size : 736 MiB (16%)
Title : Дубляж
Language : Russian
Default : Yes
Forced : No

Text
ID : 3
Format : UTF-8
Codec ID : S_TEXT/UTF8
Codec ID/Info : UTF-8 Plain Text
Duration : 2 h 11 min
Bit rate : 113 b/s
Count of elements : 2161
Stream size : 109 KiB (0%)
Title : Без цензуры
Language : Russian
Default : No
Forced : No

Menu
00:00:00.000 : en:00:00:00.000
00:02:31.693 : en:00:02:31.693
00:07:55.517 : en:00:07:55.517
00:10:46.229 : en:00:10:46.229
00:14:21.194 : en:00:14:21.194
00:17:42.937 : en:00:17:42.937
00:19:10.775 : en:00:19:10.775
00:24:14.370 : en:00:24:14.370
00:27:11.630 : en:00:27:11.630
00:37:17.444 : en:00:37:17.444
00:42:11.821 : en:00:42:11.821
00:44:40.428 : en:00:44:40.428
00:49:30.926 : en:00:49:30.926
00:52:20.471 : en:00:52:20.471
00:56:47.613 : en:00:56:47.613
01:01:00.073 : en:01:01:00.073
01:04:47.050 : en:01:04:47.050
01:07:22.997 : en:01:07:22.997
01:09:45.098 : en:01:09:45.098
01:11:45.426 : en:01:11:45.426
01:15:21.016 : en:01:15:21.016
01:19:19.213 : en:01:19:19.213
01:21:00.189 : en:01:21:00.189
01:24:49.543 : en:01:24:49.543
01:29:10.845 : en:01:29:10.845
01:32:30.420 : en:01:32:30.420
01:36:11.391 : en:01:36:11.391
01:38:18.851 : en:01:38:18.851
01:42:06.329 : en:01:42:06.329
01:44:18.711 : en:01:44:18.711
01:46:03.774 : en:01:46:03.774
01:48:06.730 : en:01:48:06.730
01:51:31.977 : en:01:51:31.977
01:55:05.398 : en:01:55:05.398
01:58:16.047 : en:01:58:16.047
02:02:04.317 : en:02:02:04.317


скриншот   скриншот   скриншот  



Новые мутанты - The New Mutants «Everyone Has Demons»

Год выпуска: 2020
Страна: США
Жанр: фантастика, боевик, ужасы

Продолжительность: 01:34:03
Перевод: Дубляж
Субтитры: русские

Режиссер: Джош Бун / Josh Boone
В ролях: Блю Хант, Алиси Брага, Мэйси Уильямс, Аня Тейлор-Джой, Чарли Хитон, Генри Зага, Адам Бич, Томас Ки, Колби Ганнетт, Хэппи Андерсон, Дастин Сейтамер, Хасинто Вега Спиритвулф, Чак, Мэрилин Мэнсон, Джеффри Кораццини

Описание:
После нашествия на её резервацию загадочного торнадо и гибели отца Дэниель Мунстар приходит в себя связанной на больничной койке. Доктор Рейес сообщает девушке, что она - единственная выжившая, и теперь вместе с четырьмя подростками находится в специализированном учреждении, где их изучают и учат контролировать свои сверхспособности. Вскоре Дэни выясняет, что покинуть огороженную силовым полем территорию невозможно, а ребят начинают преследовать кажущиеся очень реальными кошмары.

Мировая премьера: 26 августа 2020


Качество: BDRip 1080p by DD2D3
Формат: MKV
Видео кодек: V_MPEGH/ISO/HEVC
Аудио кодек: AC3
Видео: V_MPEGH/ISO/HEVC; 1920x1036 (1.85:1); 5006 Kbps; 59,940 fps; 0,042 bpp
Аудио: русский; AC3; 384 Kbps; CBR; 6 ch
Навигация по главам: есть

General
Unique ID : 180657855852865064503314380709743035021 (0x87E96FFB41097FFE9CE9A2F36EF4028D)
Complete name : D:\Marvel Comics (2000 - ....) BDRip - HEVC 1080p 10 bit 60 FPS\X-Men film series (2000 - .....) BDRip - HEVC 1080p 10 bit 60 FPS\The New Mutants (2020) BDRip - HEVC 1080p 10 bit 60 FPS.mkv
Format : Matroska
Format version : Version 4
File size : 3.55 GiB
Duration : 1 h 34 min
Overall bit rate : 5 398 kb/s
Movie name : Rip by from DD2D3
Encoded date : UTC 2020-11-22 08:40:55
Writing application : mkvmerge v10.0.0 ('To Drown In You') 32bit
Writing library : libebml v1.3.4 + libmatroska v1.4.5
Attachments : poster

Video
ID : 1
Format : HEVC
Format/Info : High Efficiency Video Coding
Format profile : Main 10@L4.1@Main
Codec ID : V_MPEGH/ISO/HEVC
Duration : 1 h 34 min
Bit rate : 5 006 kb/s
Width : 1 920 pixels
Height : 1 036 pixels
Display aspect ratio : 1.85:1
Frame rate mode : Constant
Frame rate : 59.940 (60000/1001) FPS
Color space : YUV
Chroma subsampling : 4:2:0
Bit depth : 10 bits
Bits/(Pixel*Frame) : 0.042
Stream size : 3.29 GiB (93%)
Writing library : x265 2.3+33-0b7d54dbb71a87a0:[Windows][MSVC 1800][64 bit] 10bit: KG7x [x265.ru]
Encoding settings : cpuid=1173503 / frame-threads=2 / numa-pools=4 / wpp / no-pmode / no-pme / no-psnr / no-ssim / log-level=2 / input-csp=1 / input-res=1920x1036 / interlace=0 / total-frames=338293 / level-idc=41 / high-tier=1 / uhd-bd=0 / ref=3 / no-allow-non-conformance / no-repeat-headers / annexb / no-aud / no-hrd / info / hash=0 / no-temporal-layers / open-gop / min-keyint=25 / keyint=250 / bframes=4 / b-adapt=2 / b-pyramid / bframe-bias=0 / rc-lookahead=20 / lookahead-slices=6 / scenecut=40 / no-intra-refresh / ctu=64 / min-cu-size=8 / no-rect / no-amp / max-tu-size=32 / tu-inter-depth=1 / tu-intra-depth=1 / limit-tu=0 / rdoq-level=0 / dynamic-rd=0.00 / no-ssim-rd / signhide / no-tskip / nr-intra=0 / nr-inter=0 / no-constrained-intra / strong-intra-smoothing / max-merge=2 / limit-refs=3 / no-limit-modes / me=1 / subme=2 / merange=57 / temporal-mvp / weightp / no-weightb / no-analyze-src-pics / deblock=0:0 / sao / no-sao-non-deblock / rd=3 / no-early-skip / rskip / no-fast-intra / no-tskip-fast / no-cu-lossless / no-b-intra / rdpenalty=0 / psy-rd=2.00 / psy-rdoq=0.00 / no-rd-refine / analysis-mode=0 / no-lossless / cbqpoffs=0 / crqpoffs=0 / rc=abr / bitrate=5000 / qcomp=0.60 / qpstep=4 / stats-write=0 / stats-read=2 / cplxblur=20.0 / qblur=0.5 / ipratio=1.40 / pbratio=1.30 / aq-mode=1 / aq-strength=1.00 / cutree / zone-count=0 / no-strict-cbr / qg-size=32 / no-rc-grain / qpmax=69 / qpmin=0 / sar=1 / overscan=0 / videoformat=5 / range=0 / colorprim=2 / transfer=2 / colormatrix=2 / chromaloc=0 / display-window=0 / max-cll=0,0 / min-luma=0 / max-luma=1023 / log2-max-poc-lsb=8 / vui-timing-info / vui-hrd-info / slices=1 / opt-qp-pps / opt-ref-list-length-pps / no-multi-pass-opt-rps / scenecut-bias=0.05 / no-opt-cu-delta-qp / no-aq-motion / no-hdr / no-hdr-opt / refine-level=5 / no-limit-sao
Default : Yes
Forced : No

Audio
ID : 2
Format : AC-3
Format/Info : Audio Coding 3
Commercial name : Dolby Digital
Codec ID : A_AC3
Duration : 1 h 34 min
Bit rate mode : Constant
Bit rate : 384 kb/s
Channel(s) : 6 channels
Channel layout : L R C LFE Ls Rs
Sampling rate : 48.0 kHz
Frame rate : 31.250 FPS (1536 SPF)
Compression mode : Lossy
Stream size : 258 MiB (7%)
Title : iTunes
Language : Russian
Service kind : Complete Main
Default : Yes
Forced : Yes

Text
ID : 3
Format : UTF-8
Codec ID : S_TEXT/UTF8
Codec ID/Info : UTF-8 Plain Text
Duration : 1 h 26 min
Bit rate : 68 b/s
Count of elements : 993
Stream size : 43.3 KiB (0%)
Title : Full
Language : Russian
Default : No
Forced : No

Menu
00:00:00.000 : en:Chapter 01
00:02:39.951 : en:Chapter 02
00:08:07.737 : en:Chapter 03
00:10:53.862 : en:Chapter 04
00:14:33.039 : en:Chapter 05
00:17:23.918 : en:Chapter 06
00:19:53.067 : en:Chapter 07
00:23:41.879 : en:Chapter 08
00:27:54.590 : en:Chapter 09
00:30:30.078 : en:Chapter 10
00:33:26.588 : en:Chapter 11
00:39:36.791 : en:Chapter 12
00:43:12.965 : en:Chapter 13
00:47:53.287 : en:Chapter 14
00:50:35.157 : en:Chapter 15
00:52:12.254 : en:Chapter 16
00:55:28.825 : en:Chapter 17
00:57:13.055 : en:Chapter 18
01:00:17.113 : en:Chapter 19
01:02:37.754 : en:Chapter 20
01:06:36.367 : en:Chapter 21
01:11:12.101 : en:Chapter 22
01:13:44.462 : en:Chapter 23
01:15:07.878 : en:Chapter 24
01:18:57.107 : en:Chapter 25
01:21:52.366 : en:Chapter 26
01:24:32.276 : en:Chapter 27
01:26:46.201 : en:Chapter 28
скриншот   скриншот   скриншот   скриншот   скриншот  

Логан - Logan«Его время пришло»

Год выпуска: 2017
Страна: США
Жанр: фантастика, боевик, приключения

Продолжительность: 02:17:23
Перевод: Дубляж
Субтитры: русские

Режиссер: Джеймс Мэнголд
В ролях: Хью Джекман, Патрик Стюарт, Дафни Кин, Бойд Холбрук, Стивен Мерчант, Элизабет Родригес, Ричард Э. Грант, Эрик Ла Салль, Дорис Моргадо, Джулия Холт, Дэйв Дэвис, Элиз Нил, Куинси Фаус

Описание:
В далеком будущем Логан и профессор Ксавьер остались без команды Людей Икс, теперь только они могут противостоять могущественной корпорации под руководством Натаниэла Эссекса, которая планирует уничтожить мир. В условиях, когда способности к регенерации у Логана с возрастом угасают, а Ксавьер теряет память из-за прогрессирующей болезни Альцгеймера, в борьбе против злодея им может прийти на помощь только женский клон Росомахи, юная Лаура Кинни.

Мировая премьера: 17 февраля 2017


Качество: BDRip 1080p by DD2D3
Формат: MKV
Видео кодек: V_MPEGH/ISO/HEVC
Аудио кодек: DTS
Видео: V_MPEGH/ISO/HEVC;1920x808 (2.40:1);4003 Kbps;59,940 fps;0,043 bpp
Аудио: русский; DTS; 768 Kbps; CBR; 6 ch; 24 bit
Навигация по главам: есть



General
Unique ID : 212114685755003845279629966794997187457 (0x9F93CD703EED0DE4A249454BFB354381)
Complete name : D:\Marvel Comics (2000 - ....) BDRip - HEVC 1080p 10 bit 60 FPS\X-Men film series (2000 - .....) BDRip - HEVC 1080p 10 bit 60 FPS\Logan (2017) BDRip - HEVC 1080p 10bit 60 FPS.mkv
Format : Matroska
Format version : Version 4
File size : 4.59 GiB
Duration : 2 h 17 min
Overall bit rate : 4 778 kb/s
Movie name : Rip by from DD2D3
Encoded date : UTC 2020-10-28 07:02:57
Writing application : mkvmerge v10.0.0 ('To Drown In You') 32bit
Writing library : libebml v1.3.4 + libmatroska v1.4.5
Attachments : poster

Video
ID : 1
Format : HEVC
Format/Info : High Efficiency Video Coding
Format profile : Main 10@L4.1@Main
Codec ID : V_MPEGH/ISO/HEVC
Duration : 2 h 17 min
Bit rate : 4 003 kb/s
Width : 1 920 pixels
Height : 808 pixels
Display aspect ratio : 2.40:1
Frame rate mode : Constant
Frame rate : 59.940 (60000/1001) FPS
Color space : YUV
Chroma subsampling : 4:2:0
Bit depth : 10 bits
Bits/(Pixel*Frame) : 0.043
Stream size : 3.84 GiB (84%)
Writing library : x265 2.3+33-0b7d54dbb71a87a0:[Windows][MSVC 1800][64 bit] 10bit: KG7x [x265.ru]
Encoding settings : cpuid=1173503 / frame-threads=2 / numa-pools=4 / wpp / no-pmode / no-pme / no-psnr / no-ssim / log-level=2 / input-csp=1 / input-res=1920x808 / interlace=0 / total-frames=494098 / level-idc=41 / high-tier=1 / uhd-bd=0 / ref=3 / no-allow-non-conformance / no-repeat-headers / annexb / no-aud / no-hrd / info / hash=0 / no-temporal-layers / open-gop / min-keyint=25 / keyint=250 / bframes=4 / b-adapt=2 / b-pyramid / bframe-bias=0 / rc-lookahead=20 / lookahead-slices=5 / scenecut=40 / no-intra-refresh / ctu=64 / min-cu-size=8 / no-rect / no-amp / max-tu-size=32 / tu-inter-depth=1 / tu-intra-depth=1 / limit-tu=0 / rdoq-level=0 / dynamic-rd=0.00 / no-ssim-rd / signhide / no-tskip / nr-intra=0 / nr-inter=0 / no-constrained-intra / strong-intra-smoothing / max-merge=2 / limit-refs=3 / no-limit-modes / me=1 / subme=2 / merange=57 / temporal-mvp / weightp / no-weightb / no-analyze-src-pics / deblock=0:0 / sao / no-sao-non-deblock / rd=3 / no-early-skip / rskip / no-fast-intra / no-tskip-fast / no-cu-lossless / no-b-intra / rdpenalty=0 / psy-rd=2.00 / psy-rdoq=0.00 / no-rd-refine / analysis-mode=0 / no-lossless / cbqpoffs=0 / crqpoffs=0 / rc=abr / bitrate=4000 / qcomp=0.60 / qpstep=4 / stats-write=0 / stats-read=2 / cplxblur=20.0 / qblur=0.5 / ipratio=1.40 / pbratio=1.30 / aq-mode=1 / aq-strength=1.00 / cutree / zone-count=0 / no-strict-cbr / qg-size=32 / no-rc-grain / qpmax=69 / qpmin=0 / sar=1 / overscan=0 / videoformat=5 / range=0 / colorprim=2 / transfer=2 / colormatrix=2 / chromaloc=0 / display-window=0 / max-cll=0,0 / min-luma=0 / max-luma=1023 / log2-max-poc-lsb=8 / vui-timing-info / vui-hrd-info / slices=1 / opt-qp-pps / opt-ref-list-length-pps / no-multi-pass-opt-rps / scenecut-bias=0.05 / no-opt-cu-delta-qp / no-aq-motion / no-hdr / no-hdr-opt / refine-level=5 / no-limit-sao
Default : Yes
Forced : No

Audio
ID : 2
Format : DTS
Format/Info : Digital Theater Systems
Codec ID : A_DTS
Duration : 2 h 17 min
Bit rate mode : Constant
Bit rate : 768 kb/s
Channel(s) : 6 channels
Channel layout : C L R Ls Rs LFE
Sampling rate : 48.0 kHz
Frame rate : 93.750 FPS (512 SPF)
Bit depth : 24 bits
Compression mode : Lossy
Stream size : 755 MiB (16%)
Title : Dub [License]
Language : Russian
Default : Yes
Forced : No

Text
ID : 3
Format : UTF-8
Codec ID : S_TEXT/UTF8
Codec ID/Info : UTF-8 Plain Text
Duration : 2 h 16 min
Bit rate : 60 b/s
Count of elements : 1378
Stream size : 60.2 KiB (0%)
Title : Full
Language : Russian
Default : No
Forced : No

Menu
00:00:00.000 : en:00:00:00.000
00:05:35.126 : en:00:05:35.126
00:09:18.558 : en:00:09:18.558
00:11:41.159 : en:00:11:41.159
00:16:23.232 : en:00:16:23.232
00:20:11.669 : en:00:20:11.669
00:24:26.715 : en:00:24:26.715
00:26:11.904 : en:00:26:11.904
00:30:13.311 : en:00:30:13.311
00:31:59.126 : en:00:31:59.126
00:34:56.886 : en:00:34:56.886
00:39:53.433 : en:00:39:53.433
00:42:55.573 : en:00:42:55.573
00:45:03.826 : en:00:45:03.826
00:47:53.412 : en:00:47:53.412
00:49:39.560 : en:00:49:39.560
00:52:14.423 : en:00:52:14.423
00:54:30.517 : en:00:54:30.517
00:57:44.211 : en:00:57:44.211
01:00:10.398 : en:01:00:10.398
01:03:53.830 : en:01:03:53.830
01:06:55.511 : en:01:06:55.511
01:09:54.774 : en:01:09:54.774
01:13:15.891 : en:01:13:15.891
01:18:43.594 : en:01:18:43.594
01:21:50.906 : en:01:21:50.906
01:25:52.189 : en:01:25:52.189
01:28:38.813 : en:01:28:38.813
01:32:41.431 : en:01:32:41.431
01:35:29.724 : en:01:35:29.724
01:41:03.432 : en:01:41:03.432
01:43:39.880 : en:01:43:39.880
01:49:38.989 : en:01:49:38.989
01:54:20.562 : en:01:54:20.562
01:57:00.430 : en:01:57:00.430
01:59:20.403 : en:01:59:20.403
02:01:14.434 : en:02:01:14.434
02:05:09.627 : en:02:05:09.627
02:06:40.551 : en:02:06:40.551
02:11:07.860 : en:02:11:07.860


скриншот   скриншот   скриншот  



pb.wtf



Скачать Люди Икс: Коллекция через торрент https://funkyimg.com/i/39Qo7.png Скачать, смотреть онлайн Люди Икс: Коллекция бесплантно в хорошем качестве Описание: «Люди-Икс: Первый класс» являются приквелом всей истории и началом Саги про Икс-Менов. Картина расскажет секретную историю многих ... 10 10 8
Info! Золотая раздача, скачанное не засчитывается.
Торрент: Зарегистрирован [2021-01-04 19:07] · скачан: 45 раз
Статус: √ проверено
Размер: 52.64 GB
Как cкачать? Как скачать Люди Икс: Коллекция через торрент | UTorrent

% Раздел Тема Автор DL S | L
Сборники (HD Video) [ 102.91 GB ] Люди Икс: Адамантовая коллекция / X-Men: Adamantium Collection [2000 2003 2006 2009 2011 2013 BDRip 1080p]DUB+VO+AVO Ворон Скачать
1 | 0
Сборники (HD Video) [ 33.78 GB ] Люди Икс. Полная Коллекция / X-Men. The Full Collection [ 2000 - 2011 BDRip ] k@rl$on Скачать
1 | 0

28-11-2019 20:33  

Отключить всю рекламу на сайте

    Дорогой пользователь! Огромная просьба, поблагодарите релизера, оцените раздачу и оставьте свои комментарий, если Вы скачали Люди Икс: Коллекция через торрент бесплатно!
    Комментировать посты могут только пользователи прошедшие не сложную регистрацию
    Показать сообщения:    

    Люди Икс: Коллекция через торрент
    Скачать бесплатно Люди Икс: Коллекция
    Люди Икс: Коллекция скачать торрент
    Люди Икс: Коллекция смотреть онлайн
    Cкачать фильм Люди Икс: Коллекция бесплатно
    Люди Икс: Коллекция скачать торрент в хорошем качестве
    Люди Икс: Коллекция смотреть онлайн бесплатно в хорошем качестве


    Вы не можете начинать темы
    Вы не можете отвечать на сообщения
    Вы не можете редактировать свои сообщения
    Вы не можете удалять свои сообщения
    Вы не можете голосовать в опросах
    Вы не можете прикреплять файлы к сообщениям
    Вы можете скачивать файлы