Лицензия

MVO

1

1 сезон

Лицензия

Лицензия

13

MVO

1 сезон

Deluxe Edition

pack

Рекомендуем

30

Repack

ВАЖНО

ВАЖНО

Ghostwire

RePack

jed

RePack

fifa19

RePack

RDR2

RePack

NEED FOR SPEED™ PAYBACK

RePack

Кинопоиск HD

 Острые козырьки 6 сезон

6 сезон

FAR CRY 6

RePack

Лицензия

MVO

1

1 сезон

1 сезон

Лицензия

  

Неадекватные люди 2 (Роман Каримов) [2020, Драма, комедия, WEB-DL 720p] [iTunes]

Неадекватные люди 2 через торрент pb.wtf

Размер: 4.23 GB | Добавлен: 1 год 8 мес. назад | Торрент скачан:250 раз
Смотреть онлайн Неадекватные люди 2 | Скачать   

04-01-2021 19:55 Неадекватные люди 2 Скачать торрент  

Неадекватные люди 2
Год выпуска: 2020
Страна: Россия
Выпущено: MEGOGO Studios
Жанр: Драма, комедия
Продолжительность: 02:15:53
Перевод: Не требуется | iTunes
Субтитры: отсутствуют

Режиссер: Роман Каримов

rating

В ролях: Ингрид Олеринская, Илья Любимов, Евгений Цыганов, Мария Горячева, Никита Санаев, Роман Хан, Артём Цуканов, Андрей Бебуришвили, Алексей Гоман, Александра Булычёва и др.

Описание: Кристина живет с Виталием тихой семейной жизнью, но ее саркастический взгляд на мир не совпадает с идеалами Виталия. Пока она занимается домашними делами, он все больше времени уделяет работе, и Кристина начинает подозревать, что это как-то связано с появлением в офисе его молодой помощницы Сони.

Качество: WEB-DL 720p
Формат: MKV

Видео: MPEG-4 AVC, 1280x720, 4075 Kbps avg, 24.000 FPS
Аудио: 48 kHz, AC3 Dolby Digital, 3/2 (L,C,R,l,r) + LFE ch, ~384 kbps
скриншот  скриншот  скриншот  скриншот  

Neadekvatnyie.lyudi.2.2020.WEB-DL.720p.ELEKTRI4KA.UNIONGANG.mkv
Format : Matroska
Format version : Version 4 / Version 2
File size : 4.23 GiB
Duration : 2 h 15 min
Overall bit rate : 4 461 kb/s
Movie name : .ELEKTRI4KA.UNIONGANG.
Encoded date : UTC 2021-01-04 19:45:37
Writing application : mkvmerge v8.3.0 ('Over the Horizon') 64bit
Writing library : libebml v1.3.1 + libmatroska v1.4.2

Video
ID : 1
Format : AVC
Format/Info : Advanced Video Codec
Format profile : [email protected]
Format settings, CABAC : No
Format settings, Reference frames : 2 frames
Codec ID : V_MPEG4/ISO/AVC
Duration : 2 h 15 min
Bit rate : 4 075 kb/s
Width : 1 280 pixels
Height : 720 pixels
Display aspect ratio : 16:9
Frame rate mode : Constant
Frame rate : 24.000 FPS
Color space : YUV
Chroma subsampling : 4:2:0
Bit depth : 8 bits
Scan type : Progressive
Bits/(Pixel*Frame) : 0.184
Stream size : 3.87 GiB (91%)
Title : .ELEKTRI4KA.UNIONGANG.
Language : Russian
Default : Yes
Forced : No
Color range : Limited
Color primaries : BT.709
Transfer characteristics : BT.709
Matrix coefficients : BT.709

Audio
ID : 2
Format : AC-3
Format/Info : Audio Coding 3
Mode extension : CM (complete main)
Format settings, Endianness : Big
Codec ID : A_AC3
Duration : 2 h 15 min
Bit rate mode : Constant
Bit rate : 384 kb/s
Channel(s) : 6 channels
Channel positions : Front: L C R, Side: L R, LFE
Sampling rate : 48.0 kHz
Frame rate : 31.250 FPS (1536 spf)
Bit depth : 16 bits
Compression mode : Lossy
Stream size : 373 MiB (9%)
Title : Original (iTunes)
Language : Russian
Default : Yes
Forced : Yes

Menu
00:00:00.000 : ru:Глава 1
00:09:50.458 : ru:Глава 2
00:19:15.166 : ru:Глава 3
00:27:52.082 : ru:Глава 4
00:36:16.790 : ru:Глава 5
00:44:53.956 : ru:Глава 6
00:53:29.789 : ru:Глава 7
01:02:05.747 : ru:Глава 8
01:10:10.372 : ru:Глава 9
01:18:20.872 : ru:Глава 10
01:27:45.997 : ru:Глава 11
01:36:35.705 : ru:Глава 12
01:45:59.580 : ru:Глава 13
01:54:42.330 : ru:Глава 14
02:03:37.621 : ru:Глава 15




Скачать Неадекватные люди 2 через торрент https://i114.fastpic.ru/big/2021/0104/c9/1961781848fae75dd54c565e8adbc6c9.jpg Скачать, смотреть онлайн Неадекватные люди 2 бесплантно в хорошем качестве Описание: Кристина живет с Виталием тихой семейной жизнью, но ее саркастический взгляд на мир не совпадает с идеалами Виталия. Пока она ... 10 10 8
Торрент: Зарегистрирован [2021-01-04 19:55] · скачан: 250 раз
Статус: √ проверено
Размер: 4.23 GB
Как cкачать? Как скачать Неадекватные люди 2 через торрент | UTorrent

% Раздел Тема Автор DL S | L
Наши новые фильмы 2020 - 2022 [ 1.46 GB ] Неадекватные люди 2 | iTunes | DLRip bober100 Скачать
2 | 0
Наши новые фильмы 2020 - 2022 [ 818 MB ] Неадекватные люди 2 | iTunes" | DLRip, "iTunes" coc900 Скачать
2 | 0
Наши новые фильмы 2020 - 2022 [ 2.55 GB ] Неадекватные люди 2 | iTunes | DLRip-AVC bober100 Скачать
2 | 0
Наши фильмы (HD, WEB-DL 720p, 1080p) [ 5.32 GB ] Неадекватные люди 2 | iTunes | 1080p bober100 Скачать
1 | 0
Наши новые фильмы 2020 - 2022 [ 2.18 GB ] Неадекватные люди 2 | iTunes | DLRip bober100 Скачать
1 | 0

28-11-2019 20:33  

Отключить вcю реклaмy на сайте

08-01-2021 13:00 Неадекватные люди 2 Скачать торрент  

Что со звуком, где он?



    Дорогой пользователь! Огромная просьба, поблагодарите релизера, оцените раздачу и оставьте свои комментарий, если Вы скачали Неадекватные люди 2 через торрент бесплатно!!
    Комментировать посты могут только пользователи прошедшие не сложную регистрацию
    Показать сообщения:    


    Неадекватные люди 2 через торрент
    Скачать бесплатно Неадекватные люди 2
    Неадекватные люди 2 скачать торрент
    Неадекватные люди 2 смотреть онлайн
    Cкачать фильм Неадекватные люди 2 бесплатно
    Неадекватные люди 2 скачать торрент в хорошем качестве
    Неадекватные люди 2 смотреть онлайн бесплатно в хорошем качестве
    Вы не можете начинать темы
    Вы не можете отвечать на сообщения
    Вы не можете редактировать свои сообщения
    Вы не можете удалять свои сообщения
    Вы не можете голосовать в опросах
    Вы не можете прикреплять файлы к сообщениям
    Вы можете скачивать файлы