Всегда рабочее зеркало без VPN и Proxy просто перед .vidak.icu напиши любое слово или цифру, Пример http://9f2l.vidak.icu

MVO

2 сезон

1 сезон

1

1 сезон

iTunes

2 сезон

13

1 сезон

Распродажа

pack

Рекомендуем

Пиратка

30

ВАЖНО

RePack

MK11

RePack

jed

RePack

fifa19

RePack

RDR2

RePack

NEED FOR SPEED™ PAYBACK

Кинопоиск HD

6 сезон

 Острые козырьки 6 сезон

Все сериалы

все сериалы на PB.wtf

RePack

FAR CRY 5

Anonymous, нам критически не хватает 5601 руб. на оплату серверов и переферии за Апрель, помоги нам пожалуйста, вся надежда только на тебя. В благодарность мы отключим тебе всю рекламу на сайте!

×
  
Magnet ссылка

Новобранец / Новичок / The Rookie / Сезон: 3 / Серии: 1-14 из 14 (Грег Биман, Адам Дэвидсон, Тоа Фрейзер) [2021, драма, криминал, WEB-DL 1080p] 2xMVO [TVShows, HDrezka Studio] pb.wtf

Новобранец через торрент pb.wtf

Размер: 45.21 GB | Добавлен: 11 мес. назад | Торрент скачан:18 раз
Смотреть онлайн Новобранец | Скачать    Ребята, помогите собрать деньги на оплату серверов!!!

05-01-2021 15:50 Новобранец Скачать торрент  

Новобранец | Новичок | The Rookie Год выпуска: 2021
Страна: США
Выпущено: eOne Television, Perfectmon Pictures, ABC Studios
Жанр: драма, криминал
Продолжительность: ~ 00:43:00
Перевод:
Профессиональный (многоголосый закадровый) | TVShows
Профессиональный (многоголосый закадровый) | HDrezka Studio
Субтитры: Русские (Forced), английские (SDH)

Режиссёр: Грег Биман, Адам Дэвидсон, Тоа Фрейзер

В ролях: Нэйтан Филлион, Шон Эшмор, Эрик Винтер, Мелисса О’Нил, Амос Блэкмон, Сара Шахи, Алисса Диас, Титус Макин мл., Ричард Т. Джонс, Эми Дэвидсон

Описание: Кардинально изменить свою жизнь не так-то просто, особенно если ты среднестатистический мужчина 40 лет, выросший в маленьком городке и никогда не хватавший звезд с неба. Джон Нолан (Нэйтан Филлион) таким себя и считал, пока не оказался в банке в момент ограбления. Попытавшись затеять конструктивный диалог с вооруженным бандитом, он, сам того не планируя, выставил себя настоящим героем в глазах миловидной дамочки и внезапно понял - вот что значит настоящая жизнь! Быть героем, защитником, спасителем или еще лучше - всем сразу. Нолан поступил на службу в полицию Лос-Анджелеса, где стал самым старым новичком из всех прибывших. Среди коллег он моментально превратился в объект насмешек со стикером "пни меня" на спине, а для начальника оказался источником проблем и бельмом на глазу. Напарница Нолана и вовсе боится выходить с ним на задание, переживая, что из-за отсутствия опыта Джон либо погибнет сам, либо подставит под пули ее. И лишь пара человек во всем департаменте задумываются о том, что богатый жизненный опыт, житейская мудрость новичка, его самоотверженная работа над собой и несгибаемая целеустремленность в конечном итоге помогут ему стать хорошим копом. Сможет ли Джон Нолан доказать коллегам и начальству, что служба в полиции - его истинное призвание, или постоянные насмешки и череда неудач все же отправят его на свалку?...



Качество: WEB-DL 1080p
Формат: MKV

Видео: AVC, 1920x1080 (16:9), ~ 9060 Kbps, 23.976 fps
Аудио 1: AC3, 48 kHz, 6 ch, 384 kbps - Rus (TVShows)
Аудио 2: AC3, 48 kHz, 6 ch, 384 kbps - Rus (HDrezka Studio)
Аудио 3: AC3, 48 kHz, 6 ch, 640 kbps - Eng
скриншот  скриншот  скриншот  скриншот  

Общее
Уникальный идентификатор : 197406300344722575333277804520610369345 (0x9483120C948E93FF9B6ECC93F06E8F41)
Полное имя : D:\Новобранец. 3 сезон. 2021. EniaHD (WEB-DL 1080p)\The.Rookie.s03e01. Последствия.mkv
Формат : Matroska
Версия формата : Version 2
Размер файла : 3,21 Гбайт
Продолжительность : 43 м. 1 с.
Общий поток : 10,7 Мбит/сек
Название фильма : Consequences
Дата кодирования : UTC 2021-01-08 17:07:15
Программа кодирования : mkvmerge v6.9.1 ('Blue Panther') 32bit built on Apr 18 2014 18:15:44
Библиотека кодирования : libebml v1.3.0 + libmatroska v1.4.1

Видео
Идентификатор : 1
Формат : AVC
Формат/Информация : Advanced Video Codec
Профиль формата : High@L4
Параметр CABAC формата : Да
Параметр RefFrames формата : 4 кадра
Идентификатор кодека : V_MPEG4/ISO/AVC
Продолжительность : 43 м. 1 с.
Вид битрейта : Постоянный
Битрейт : 9061 Кбит/сек
Номинальный битрейт : 10000 Кбит/сек
Ширина : 1920 пикселей
Высота : 1080 пикселей
Соотношение сторон : 16:9
Режим частоты кадров : Постоянный
Частота кадров : 23,976 (24000/1001) кадра/сек
Цветовое пространство : YUV
Субдискретизация насыщенности : 4:2:0
Битовая глубина : 8 бит
Тип развёртки : Прогрессивная
Бит/(Пиксели*Кадры) : 0.182
Размер потока : 2,72 Гбайт (85%)
Язык : English
Default : Да
Forced : Нет
Цветовой диапазон : Limited
Основные цвета : BT.709
Характеристики трансфера : BT.709
Коэффициенты матрицы : BT.709

Аудио #1
Идентификатор : 2
Формат : AC-3
Формат/Информация : Audio Coding 3
Расширение режима : CM (complete main)
Параметр Endianness формата : Big
Идентификатор кодека : A_AC3
Продолжительность : 43 м. 1 с.
Вид битрейта : Постоянный
Битрейт : 384 Кбит/сек
Каналы : 6 каналов
Расположение каналов : Front: L C R, Side: L R, LFE
Частота : 48,0 КГц
Частота кадров : 31,250 кадров/сек (1536 spf)
Метод сжатия : С потерями
Размер потока : 118 Мбайт (4%)
Заголовок : TVShows
Язык : Russian
Default : Да
Forced : Нет

Аудио #2
Идентификатор : 3
Формат : AC-3
Формат/Информация : Audio Coding 3
Расширение режима : CM (complete main)
Параметр Endianness формата : Big
Идентификатор кодека : A_AC3
Продолжительность : 43 м. 1 с.
Вид битрейта : Постоянный
Битрейт : 384 Кбит/сек
Каналы : 6 каналов
Расположение каналов : Front: L C R, Side: L R, LFE
Частота : 48,0 КГц
Частота кадров : 31,250 кадров/сек (1536 spf)
Метод сжатия : С потерями
Размер потока : 118 Мбайт (4%)
Заголовок : HDrezka Studio
Язык : Russian
Default : Нет
Forced : Нет

Аудио #3
Идентификатор : 4
Формат : AC-3
Формат/Информация : Audio Coding 3
Расширение режима : CM (complete main)
Параметр Endianness формата : Big
Идентификатор кодека : A_AC3
Продолжительность : 43 м. 1 с.
Вид битрейта : Постоянный
Битрейт : 640 Кбит/сек
Каналы : 6 каналов
Расположение каналов : Front: L C R, Side: L R, LFE
Частота : 48,0 КГц
Частота кадров : 31,250 кадров/сек (1536 spf)
Метод сжатия : С потерями
Размер потока : 197 Мбайт (6%)
Язык : English
Default : Нет
Forced : Нет

Текст #1
Идентификатор : 5
Формат : UTF-8
Идентификатор кодека : S_TEXT/UTF8
Идентификатор кодека/Информация : UTF-8 Plain Text
Заголовок : Forced
Язык : Russian
Default : Да
Forced : Да

Текст #2
Идентификатор : 6
Формат : UTF-8
Идентификатор кодека : S_TEXT/UTF8
Идентификатор кодека/Информация : UTF-8 Plain Text
Заголовок : SDH
Язык : English
Default : Нет
Forced : Нет

Внимание! Раздача ведётся путём добавления новых серий; при каждом добавлении создаётся новый торрент.
Чтобы начать докачку новой серии, пользователям необходимо сделать следующее:
1. Остановить скачивание.
2. Удалить старый торрент у себя из клиента (старые серии удалять не надо).
3. Скачать новый торрент и запустить его у себя в клиенте вместо старого, при этом указать клиенту путь в старую папку куда и должно происходить скачивание новых серий.
Ваш клиент при этом должен произвести хеширование (проверку) старой папки (если не производит сам - помогите ему сделать это), и будет докачивать только те серии которых у вас ещё нет. Старые серии при этом не удаляются, а продолжают раздаваться!
Eсли вы уже удалили старые серии, то предотвратить повторную закачку старых серий можно, отжав галочку в соответствующих местах при запуске нового торрента.
pb.wtf



Скачать Новобранец через торрент https://funkyimg.com/i/2XrWp.png Скачать, смотреть онлайн Новобранец бесплантно в хорошем качестве Описание: Кардинально изменить свою жизнь не так-то просто, особенно если ты среднестатистический мужчина 40 лет, выросший в маленьком ... 10 10 6
Info! Золотая раздача, скачанное не засчитывается.
Торрент: Зарегистрирован [2021-05-21 16:42] · скачан: 18 раз
Статус: √ проверено
Размер: 45.21 GB
Как cкачать? Как скачать Новобранец через торрент | UTorrent

28-11-2019 20:33  

Отключить всю рекламу на сайте

    Дорогой пользователь! Огромная просьба, поблагодарите релизера, оцените раздачу и оставьте свои комментарий, если Вы скачали Новобранец через торрент бесплатно!
    Комментировать посты могут только пользователи прошедшие не сложную регистрацию
    Показать сообщения:    

    Новобранец через торрент
    Скачать бесплатно Новобранец
    Новобранец скачать торрент
    Новобранец смотреть онлайн
    Cкачать фильм Новобранец бесплатно
    Новобранец скачать торрент в хорошем качестве
    Новобранец смотреть онлайн бесплатно в хорошем качестве


    Вы не можете начинать темы
    Вы не можете отвечать на сообщения
    Вы не можете редактировать свои сообщения
    Вы не можете удалять свои сообщения
    Вы не можете голосовать в опросах
    Вы не можете прикреплять файлы к сообщениям
    Вы можете скачивать файлы