Доктор Стрэндж

Лицензия

Добыча

MVO

Дом дракона

1 сезон

Тор

Лицензия

Мэверик

Лицензия

Там, где раки поют

MVO

Властелин колец

1 сезон

Ultimate

pack

Рекомендуем

30

Repack

ВАЖНО

ВАЖНО

Ghostwire

RePack

jed

RePack

nioh2

RePack

RDR2

RePack

NEED FOR SPEED™ PAYBACK

RePack

скачать торрент

Кинопоиск HD

Острые козырьки 6 сезон

6 сезон

FAR CRY 6

RePack

скачать торрент

Лицензия

скачать торрент

MVO

1

1 сезон

скачать торрент

1 сезон

скачать торрент

Лицензия

  

Стража / The Watch / Сезон: 1 / Серии: 1-8 из 8 (Эмма Салливан, Крэйг Вивейрос, Брайан Келли) [2020, Фэнтези, боевик, триллер, драма, приключения, WEB-DL 1080p] MVO [LostFilm]

Стража через торрент pb.wtf

Размер: 23.27 GB | Добавлен: 1 год 7 мес. назад | Торрент скачан:54 раза
Смотреть онлайн | Скачать   

05-01-2021 20:00 Стража Скачать торрент  

Стража | The Watch
«***»
Год выпуска: 2020
Страна: Великобритания
Выпущено: BBC Studios, Narrativia
Жанр: Фэнтези, боевик, триллер, драма, приключения
Продолжительность: ~ 00:44:00 серия
Перевод: Профессиональный (многоголосый) | LostFilm
Субтитры: Русские (Forced, Full (студия FOCS)), английские (SDH)

Режиссер: Эмма Салливан, Крэйг Вивейрос, Брайан Келли

rating

В ролях: Сэмюэл Адевунми (Samuel Adewunmi), Марама Корлетт (Marama Corlett), Ричард Дормер (Richard Dormer), Джо Итон-Кент (Jo Eaton-Kent), Адам Хагилл (Adam Hugill), Лара Росси (Lara Rossi), Уенделл Пирс (Wendell Pierce), Джо Ваз (Joe Vaz), Мэтт Берри (Matt Berry), Ралф Айнесон (Ralph Ineson), Рут Маделей (Ruth Madeley), Ингрид Оливер (Ingrid Oliver)

Описание: В городе Анк-Морпорк преступления разрешены законом. Здесь обитают люди и расы со всего Плоского мира, бок о бок живут тролли, гномы, големы, вампиры, оборотни, зомби. Все они не просто сосуществуют, но и борются за свои права и равенство. Именно в этом гигантском кипящем котле нечистот должны нести службу стражники, с которыми никто не считается, и которые давно оставили попытки поддерживать закон. Но появление решительного новичка и ошибка прошлого заставят стражу и ее капитана вспомнить о долге.

Качество: WEB-DL 1080p
Формат: MKV

Видео: MPEG-4 AVC, ~ 8000 Кбит/с, 1920x1080, 25.000 fps
Аудио Rus: AC3, 48 kHz, 6 ch, 640 kbps |LostFilm|
Аудио Eng: E-AC3, 48 kHz, 6 ch, 640 kbps |Original|
скриншот  скриншот  скриншот  скриншот  

General
Unique ID : 105310697437339881277534316376399356630 (0x4F3A1A41C20D5D62E0E7815993C922D6)
Complete name : G:The.Watch.2021.S01.1080p.WEB-DL.DDP5.1.LostFilmThe.Watch.2021.S01E01.1080p.WEB-DL.DDP5.1.LostFilm.mkv
Format : Matroska
Format version : Version 4
File size : 2.86 GiB
Duration : 43 min 10 s
Overall bit rate : 9 471 kb/s
Encoded date : UTC 2021-01-08 08:53:13
Writing application : mkvmerge v51.0.0 ('I Wish') 64-bit
Writing library : libebml v1.4.0 + libmatroska v1.6.2

Video
ID : 1
Format : AVC
Format/Info : Advanced Video Codec
Format profile : [email protected]
Format settings : CABAC / 4 Ref Frames
Format settings, CABAC : Yes
Format settings, Reference frames : 4 frames
Codec ID : V_MPEG4/ISO/AVC
Duration : 43 min 10 s
Bit rate mode : Constant
Bit rate : 8 189 kb/s
Nominal bit rate : 10 000 kb/s
Width : 1 920 pixels
Height : 1 080 pixels
Display aspect ratio : 16:9
Frame rate mode : Constant
Frame rate : 25.000 FPS
Color space : YUV
Chroma subsampling : 4:2:0
Bit depth : 8 bits
Scan type : Progressive
Bits/(Pixel*Frame) : 0.158
Stream size : 2.47 GiB (86%)
Language : English
Default : Yes
Forced : No
Color range : Limited
Color primaries : BT.709
Transfer characteristics : BT.709
Matrix coefficients : BT.709

Audio #1
ID : 2
Format : AC-3
Format/Info : Audio Coding 3
Commercial name : Dolby Digital
Codec ID : A_AC3
Duration : 43 min 10 s
Bit rate mode : Constant
Bit rate : 640 kb/s
Channel(s) : 6 channels
Channel layout : L R C LFE Ls Rs
Sampling rate : 48.0 kHz
Frame rate : 31.250 FPS (1536 SPF)
Compression mode : Lossy
Stream size : 198 MiB (7%)
Title : LostFilm
Language : Russian
Default : No
Forced : No

Audio #2
ID : 3
Format : E-AC-3
Format/Info : Enhanced AC-3
Commercial name : Dolby Digital Plus
Codec ID : A_EAC3
Duration : 43 min 10 s
Bit rate mode : Constant
Bit rate : 640 kb/s
Channel(s) : 6 channels
Channel layout : L R C LFE Ls Rs
Sampling rate : 48.0 kHz
Frame rate : 31.250 FPS (1536 SPF)
Compression mode : Lossy
Stream size : 198 MiB (7%)
Language : English
Default : Yes
Forced : No

Text #1
ID : 4
Format : UTF-8
Codec ID : S_TEXT/UTF8
Codec ID/Info : UTF-8 Plain Text
Duration : 38 min 38 s
Bit rate : 5 b/s
Count of elements : 32
Stream size : 1.65 KiB (0%)
Title : forced
Language : Russian
Default : Yes
Forced : No

Text #2
ID : 5
Format : UTF-8
Codec ID : S_TEXT/UTF8
Codec ID/Info : UTF-8 Plain Text
Duration : 42 min 27 s
Bit rate : 103 b/s
Count of elements : 706
Stream size : 32.3 KiB (0%)
Language : Russian
Default : No
Forced : No

Text #3
ID : 6
Format : UTF-8
Codec ID : S_TEXT/UTF8
Codec ID/Info : UTF-8 Plain Text
Duration : 42 min 19 s
Bit rate : 68 b/s
Count of elements : 719
Stream size : 21.2 KiB (0%)
Title : SDH
Language : English
Default : No
Forced : No

Внимание! Раздача ведётся путём добавления новых серий; при каждом добавлении создаётся новый торрент.
Чтобы начать докачку новой серии, пользователям необходимо сделать следующее:
1. Остановить скачивание;
2. Удалить старый торрент у себя из клиента (старые серии удалять не надо);
3. Скачать новый торрент и запустить его у себя в клиенте вместо старого, при этом указать клиенту путь в старую папку куда и должно происходить скачивание новых серий. Ваш клиент при этом должен произвести хеширование (проверку) старой папки и будет докачивать только те серии, которых у вас ещё нет. Старые серии при этом не удаляются, а продолжают раздаваться! Eсли вы уже удалили старые серии, то предотвратить повторную закачку старых серий можно, отжав галочку в соответствующих местах при запуске нового торрента.




Скачать Стража через торрент https://i4-imageban-ru.translate.goog/out/2021/01/04/db378ff79c95a67465823d0955efb033.png Скачать, смотреть онлайн Стража бесплантно в хорошем качестве Описание: В городе Анк-Морпорк преступления разрешены законом. Здесь обитают люди и расы со всего Плоского мира, бок о бок живут тролли, ... 8.5 10 6
Торрент: Зарегистрирован [2021-02-17 07:11] · скачан: 54 раз
Статус: √ проверено
Размер: 23.27 GB
Как cкачать? Как скачать Стража через торрент | UTorrent

% Раздел Тема Автор DL S | L
Зарубежные сериалы [ 6.89 GB ] Стража / The Watch / Сезон: 1 / Серии: 1-8 из 8 | LostFilm | DLRip-AVC GEKADOL Скачать
1 | 0
Зарубежные сериалы [ 6.78 GB ] Стража / The Watch / Сезон: 1 / Серии: 1-8 из 8 | DUB | DLRip-AVC GEKADOL Скачать
1 | 0
Зарубежные сериалы [ 4.3 GB ] Стража / The Watch / Сезон: 1 / Серии: 1-8 из 8 | TVShows | DLRip killermax2013 Скачать
1 | 0
Зарубежные сериалы [ 4.28 GB ] Стража / The Watch / Сезон: 1 / Серии: 1-8 из 8 | LostFilm | DLRip bober100 Скачать
1 | 0
Зарубежные сериалы [ 6.31 GB ] Стража / The Watch / Сезон: 1 / Серии: 1-8 из 8 | DUB | DLRip bober100 Скачать
1 | 0
Зарубежные сериалы [ 23.2 GB ] Стража / The Watch / Сезон: 1 / Серии: 1-8 из 8 | DUB | 1080p bober100 Скачать
1 | 0
Зарубежные сериалы [ 1.37 GB ] Стража / The Watch / Сезон: 1 / Серии: 1- из 8 | LostFilm | 720p bober100 Скачать
1 | 0



Последний раз редактировалось: bober100 (2021-02-17 07:11), всего редактировалось 2 раз(а)

28-11-2019 20:33  


Отключить вcю реклaмy на сайте, в т.ч. и в плеере онлайн просмотра!

03-02-2021 15:21 Стража Скачать торрент  

оченно рекомендовано смотреть таки в Кубиках, а не в лосте.... Фиг знает, лост уже много лет меня не радует..*субьективно, само - собой



17-02-2021 09:16 Стража Скачать торрент  

Как сериальчик, стоит смотреть или ну нах?



    Дорогой пользователь! Огромная просьба, поблагодарите релизера, оцените раздачу и оставьте свои комментарий, если Вы скачали Стража через торрент бесплатно!!
    Комментировать посты могут только пользователи прошедшие не сложную регистрацию
    Показать сообщения:    


    Стража через торрент
    Скачать бесплатно Стража
    Стража скачать торрент
    Стража смотреть онлайн
    Cкачать фильм Стража бесплатно
    Стража скачать торрент в хорошем качестве
    Стража смотреть онлайн бесплатно в хорошем качестве
    Вы не можете начинать темы
    Вы не можете отвечать на сообщения
    Вы не можете редактировать свои сообщения
    Вы не можете удалять свои сообщения
    Вы не можете голосовать в опросах
    Вы не можете прикреплять файлы к сообщениям
    Вы можете скачивать файлы