Доктор Стрэндж

Лицензия

Добыча

MVO

Дом дракона

1 сезон

Тор

Лицензия

Мэверик

Лицензия

Там, где раки поют

MVO

Властелин колец

1 сезон

Ultimate

pack

Рекомендуем

30

Repack

ВАЖНО

ВАЖНО

Ghostwire

RePack

jed

RePack

nioh2

RePack

RDR2

RePack

NEED FOR SPEED™ PAYBACK

RePack

скачать торрент

Кинопоиск HD

Острые козырьки 6 сезон

6 сезон

FAR CRY 6

RePack

скачать торрент

Лицензия

скачать торрент

MVO

1

1 сезон

скачать торрент

1 сезон

скачать торрент

Лицензия

  

Стража / The Watch / Сезон: 1 / Серии: 1-8 из 8 (Эмма Салливан, Крэйг Вивейрос, Брайан Келли) [2021, фэнтези, боевик, триллер, WEB-DLRip] DUB [Novamedia]

Стража через торрент pb.wtf

Размер: 6.31 GB | Добавлен: 1 год 7 мес. назад | Торрент скачан:52 раза
Смотреть онлайн | Скачать   

06-01-2021 06:28 Стража Скачать торрент  

Стража | The Watch
«***»
Год выпуска: 2020
Страна: Великобритания
Выпущено: BBC Studios, Narrativia
Жанр: Фэнтези, боевик, триллер, драма, приключения
Продолжительность: ~ 00:44:00 серия
Перевод: Дублированный | Novamedia
Субтитры: Русские (Full, Forc - FOCS), английские (SDH)

Режиссер: Эмма Салливан, Крэйг Вивейрос, Брайан Келли

rating

В ролях: Сэмюэл Адевунми (Samuel Adewunmi), Марама Корлетт (Marama Corlett), Ричард Дормер (Richard Dormer), Джо Итон-Кент (Jo Eaton-Kent), Адам Хагилл (Adam Hugill), Лара Росси (Lara Rossi), Уенделл Пирс (Wendell Pierce), Джо Ваз (Joe Vaz), Мэтт Берри (Matt Berry), Ралф Айнесон (Ralph Ineson), Рут Маделей (Ruth Madeley), Ингрид Оливер (Ingrid Oliver)

Описание: В городе Анк-Морпорк преступления разрешены законом. Здесь обитают люди и расы со всего Плоского мира, бок о бок живут тролли, гномы, големы, вампиры, оборотни, зомби. Все они не просто сосуществуют, но и борются за свои права и равенство. Именно в этом гигантском кипящем котле нечистот должны нести службу стражники, с которыми никто не считается, и которые давно оставили попытки поддерживать закон. Но появление решительного новичка и ошибка прошлого заставят стражу и ее капитана вспомнить о долге.

Качество: WEB-DLRip
Формат: AVI

Видео: XviD, 720x400 (16:9), 23,976 fps, ~ 2000 kbps
Аудио: AC3 Dolby Digital, 48.0 KHz, 6 ch, 320 kbps
Аудио: AC3 Dolby Digital, 48.0 KHz, 6 ch, 320 kbps
скриншот  скриншот  скриншот  скриншот  скриншот  

Общее
Полное имя : E:\The.Watch.S01.WEB-DLRip.D\The.Watch.S01E02.avi
Формат : AVI
Формат/Информация : Audio Video Interleave
Размер файла : 810 Мбайт
Продолжительность : 42 м. 37 с.
Общий поток : 2655 Кбит/сек
Название фильма : The Watch S01E01 - EniaHD
Программа кодирования : VirtualDubMod 1.5.10.3 (build 2550/release)
Библиотека кодирования : VirtualDubMod build 2550/release

Видео
Идентификатор : 0
Формат : MPEG-4 Visual
Профиль формата : Advanced [email protected]
Настройки формата : BVOP1
Параметр BVOP формата : 1
Параметр QPel формата : Нет
Параметр GMC формата : Без точки перехода
Параметр матрицы формата : Default (MPEG)
Идентификатор кодека : XVID
Идентификатор кодека/Подсказка : XviD
Продолжительность : 42 м. 37 с.
Битрейт : 2000 Кбит/сек
Ширина : 720 пикселей
Высота : 400 пикселей
Соотношение сторон : 16:9
Частота кадров : 25,000 кадров/сек
Цветовое пространство : YUV
Субдискретизация насыщенности : 4:2:0
Битовая глубина : 8 бит
Тип развёртки : Прогрессивная
Метод сжатия : С потерями
Бит/(Пиксели*Кадры) : 0.278
Размер потока : 610 Мбайт (75%)
Библиотека кодирования : XviD 67

Аудио #1
Идентификатор : 1
Формат : AC-3
Формат/Информация : Audio Coding 3
Коммерческое название : Dolby Digital
Идентификатор кодека : 2000
Продолжительность : 42 м. 37 с.
Вид битрейта : Постоянный
Битрейт : 320 Кбит/сек
Каналы : 6 каналов
ChannelLayout : L R C LFE Ls Rs
Частота : 48,0 КГц
Частота кадров : 31,250 кадров/сек (1536 SPF)
Метод сжатия : С потерями
Размер потока : 97,6 Мбайт (12%)
Выравнивание : Разделение по промежуткам
Продолжительность промежутка : 40 мс. (1,00 видеокадр)
Время предзагрузки промежутка : 500 мс.
ServiceKind/String : Complete Main

Аудио #2
Идентификатор : 2
Формат : AC-3
Формат/Информация : Audio Coding 3
Коммерческое название : Dolby Digital
Идентификатор кодека : 2000
Продолжительность : 42 м. 37 с.
Вид битрейта : Постоянный
Битрейт : 320 Кбит/сек
Каналы : 6 каналов
ChannelLayout : L R C LFE Ls Rs
Частота : 48,0 КГц
Частота кадров : 31,250 кадров/сек (1536 SPF)
Метод сжатия : С потерями
Размер потока : 97,6 Мбайт (12%)
Выравнивание : Разделение по промежуткам
Продолжительность промежутка : 40 мс. (1,00 видеокадр)
Время предзагрузки промежутка : 500 мс.
ServiceKind/String : Complete Main

Внимание! Раздача ведётся путём добавления новых серий; при каждом добавлении создаётся новый торрент.
Чтобы начать докачку новой серии, пользователям необходимо сделать следующее:
1. Остановить скачивание;
2. Удалить старый торрент у себя из клиента (старые серии удалять не надо);
3. Скачать новый торрент и запустить его у себя в клиенте вместо старого, при этом указать клиенту путь в старую папку куда и должно происходить скачивание новых серий. Ваш клиент при этом должен произвести хеширование (проверку) старой папки и будет докачивать только те серии, которых у вас ещё нет. Старые серии при этом не удаляются, а продолжают раздаваться! Eсли вы уже удалили старые серии, то предотвратить повторную закачку старых серий можно, отжав галочку в соответствующих местах при запуске нового торрента.




Скачать Стража через торрент https://funkyimg.com/i/39Rwf.png Скачать, смотреть онлайн Стража бесплантно в хорошем качестве Описание: В городе Анк-Морпорк преступления разрешены законом. Здесь обитают люди и расы со всего Плоского мира, бок о бок живут тролли, ... 8.5 10 6
Торрент: Зарегистрирован [2021-02-17 07:20] · скачан: 52 раз
Статус: √ проверено
Размер: 6.31 GB
Как cкачать? Как скачать Стража через торрент | UTorrent

% Раздел Тема Автор DL S | L
Зарубежные сериалы [ 6.89 GB ] Стража / The Watch / Сезон: 1 / Серии: 1-8 из 8 | LostFilm | DLRip-AVC GEKADOL Скачать
1 | 0
Зарубежные сериалы [ 23.27 GB ] Стража / The Watch / Сезон: 1 / Серии: 1-8 из 8 | LostFilm | 1080p bober100 Скачать
1 | 0
Зарубежные сериалы [ 6.78 GB ] Стража / The Watch / Сезон: 1 / Серии: 1-8 из 8 | DUB | DLRip-AVC GEKADOL Скачать
1 | 0
Зарубежные сериалы [ 4.3 GB ] Стража / The Watch / Сезон: 1 / Серии: 1-8 из 8 | TVShows | DLRip killermax2013 Скачать
1 | 0
Зарубежные сериалы [ 4.28 GB ] Стража / The Watch / Сезон: 1 / Серии: 1-8 из 8 | LostFilm | DLRip bober100 Скачать
1 | 0
Зарубежные сериалы [ 23.2 GB ] Стража / The Watch / Сезон: 1 / Серии: 1-8 из 8 | DUB | 1080p bober100 Скачать
1 | 0
Зарубежные сериалы [ 1.37 GB ] Стража / The Watch / Сезон: 1 / Серии: 1- из 8 | LostFilm | 720p bober100 Скачать
1 | 0

28-11-2019 20:33  


Отключить вcю реклaмy на сайте, в т.ч. и в плеере онлайн просмотра!

    Дорогой пользователь! Огромная просьба, поблагодарите релизера, оцените раздачу и оставьте свои комментарий, если Вы скачали Стража через торрент бесплатно!!
    Комментировать посты могут только пользователи прошедшие не сложную регистрацию
    Показать сообщения:    


    Стража через торрент
    Скачать бесплатно Стража
    Стража скачать торрент
    Стража смотреть онлайн
    Cкачать фильм Стража бесплатно
    Стража скачать торрент в хорошем качестве
    Стража смотреть онлайн бесплатно в хорошем качестве
    Вы не можете начинать темы
    Вы не можете отвечать на сообщения
    Вы не можете редактировать свои сообщения
    Вы не можете удалять свои сообщения
    Вы не можете голосовать в опросах
    Вы не можете прикреплять файлы к сообщениям
    Вы можете скачивать файлы