2 сезон

iTunes

MVO

1

2 сезон

iTunes

iTunes

1 сезон

RePack

30

Ultimate

ВАЖНО

ИГРА 18+

pack

RePack

MK11
pack

Легкие деньги

RePack

jed

RePack

fifa19

RePack

RDR2

RePack

NEED FOR SPEED™ PAYBACK

4 сезон

9 сезон

Бесстыжие 9 сезон

Все сериалы

все сериалы на PB.wtf

RePack

FAR CRY 5

Anonymous, доброй ночи, мы не успеваем собрать деньги на оплату серверов за декабрь и январь, помогите нам пожалуйста в это трудное время. В качестве благодарности мы отключим Вам всю рекламу на сайте (укажите свой ник в строку Ваше имя)!

×
  
Magnet ссылка

Рекрут / The Recruit (Роджер Дональдсон) [2003 г., Боевик, триллер, драма, криминал, BDRip 720p / 60 FPS] DUB + 2xMVO + 3xAVO - от R.G. HD-Films pb.wtf

Рекрут через торрент pb.wtf

Раздают: 6 [ 0 KB/s ]
Размер: 5.45 GB | Добавлен: 14 д. назад | Торрент скачан:88 раз
Скачать  

08-01-2021 10:40 Рекрут Скачать торрент  

Рекрут / The Recruit
Год выпуска: 2003
Страна: США
Жанр: Боевик, триллер, драма, криминал
Продолжительность: 01:55:00
Перевод: Профессиональный (полное дублирование), 2 x Профессиональный (многоголосый, закадровый), 3 x Авторский, Оригинальный
Субтитры: русские (Forced), русские, английские

Режиссер: Роджер Дональдсон

Бюджет: $46 000 000
Премьера в мире: 25 января 2003

rating

В ролях: Аль Пачино, Колин Фаррелл, Бриджет Мойнэхэн, Гэбриел Махт, Кеннет Митчелл, Майк Рилба, Рон Лиа, Карл Прюнер, Джини Колледжа, Дженни Ливайн

Описание: Джеймс Клэйтон учится на последнем курсе Массачусетского технологического института и показывает отличные навыки в компьютерном программировании. Он является матёрым хакером, что привлекает внимание спецслужб. Однажды к Джеймсу обращается человек из ЦРУ Уолтер Бёрк, который предлагает парню поступить на службу в управление, а в виде главной мотивации для вербовки он использует таинственное исчезновение отца Джеймса, которое произошло в начале 90-х годов. Заинтригованный Клэйтон соглашается, а позже проходит все необходимые проверки и попадает в тренировочный лагерь для рекрутов. Тренером ребят становится Уолтер Бёрк. Пройдя один тест за другим, Клэйтон демонстрирует прекрасные навыки шпиона, но проваливает последнюю проверку. Так он становится агентом без прикрытия, которому предстоит найти «крота», который частями похищает опасный вирус из Лэнгли.

Качество: BDRip 720p / 60 FPS
Формат: MKV
Видео кодек: H.264
Аудио кодек: AC3
Видео: x264, 1280 x 544 ( 2,35:1 ), 4400 kbps, 60,000 fps, ( 0.105 bpp)
Аудио#1: Russian: 48 kHz, AC3, 2.0 ch, 16 bits, 192 kbps DUB
Аудио#2: Russian: 48 kHz, AC3, 5.1 ch, 16 bits, 384 kbps MVO ( FDV )
Аудио#3: Russian: 48 kHz, AC3, 5.1 ch, 16 bits, 384 kbps MVO ( Видеосервис )
Аудио#4: Russian: 48 kHz, AC3, 5.1 ch, 16 bits, 384 kbps AVO ( Живов )
Аудио#5: Russian: 48 kHz, AC3, 5.1 ch, 16 bits, 384 kbps AVO ( Володарский )
Аудио#6: Russian: 48 kHz, AC3, 5.1 ch, 16 bits, 384 kbps АVO ( Есарёв )
Аудио#7: English: 48 kHz, AC3, 5.1 ch, 16 bits, 384 kbps Оригинал
Релиз от: Автор рипа: slaventi-69
x264 info: frame I:1694 Avg QP:13.76 size: 62744
x264 info: frame P:89801 Avg QP:14.99 size: 25581
x264 info: frame B:322509 Avg QP:16.10 size: 4007
x264 info: consecutive B-frames: 1.1% 2.3% 4.0% 17.6% 49.6% 25.5%

Общее
Уникальный идентификатор : 115729859985357949684958788309599754723 (0x5710C2A1BF1483E6CAE7D9D1B3CD99E3)
Полное имя : E:\The.Recruit.(2003).BDRip.720p.(60 Fps).mkv
Формат : Matroska
Версия формата : Version 4
Размер файла : 5,45 Гбайт
Продолжительность : 1 ч. 55 м.
Общий поток : 6785 Кбит/сек
Название фильма : Рекрут / The Recruit (2003) BDRip 720p (60 Fps)
Дата кодирования : UTC 2021-01-05 15:39:23
Программа кодирования : mkvmerge v35.0.0 ('All The Love In The World') 64-bit
Библиотека кодирования : libebml v1.3.9 + libmatroska v1.5.2

Видео
Идентификатор : 1
Формат : AVC
Формат/Информация : Advanced Video Codec
Профиль формата : High@L4.1
Настройки формата : CABAC / 9 Ref Frames
Параметр CABAC формата : Да
Параметр RefFrames формата : 9 кадров
Идентификатор кодека : V_MPEG4/ISO/AVC
Продолжительность : 1 ч. 55 м.
Битрейт : 4400 Кбит/сек
Ширина : 1280 пикселей
Высота : 544 пикселя
Соотношение сторон : 2,35:1
Режим частоты кадров : Постоянный
Частота кадров : 60,000 кадров/сек
Цветовое пространство : YUV
Субдискретизация насыщенности : 4:2:0
Битовая глубина : 8 бит
Тип развёртки : Прогрессивная
Бит/(Пиксели*Кадры) : 0.105
Размер потока : 3,44 Гбайт (63%)
Заголовок : slaventi-69 ( R.G. HD-Films | 60 fps )
Библиотека кодирования : x264 core 157 r2958 57baac4
Настройки программы : cabac=1 / ref=9 / deblock=1:-3:-3 / analyse=0x3:0x133 / me=umh / subme=9 / psy=1 / psy_rd=1.00:0.00 / mixed_ref=1 / me_range=32 / chroma_me=1 / trellis=2 / 8x8dct=1 / cqm=0 / deadzone=21,11 / fast_pskip=1 / chroma_qp_offset=4 / threads=10 / lookahead_threads=4 / sliced_threads=0 / nr=0 / decimate=1 / interlaced=0 / bluray_compat=0 / constrained_intra=0 / bframes=5 / b_pyramid=2 / b_adapt=2 / b_bias=4 / direct=2 / weightb=1 / open_gop=0 / weightp=2 / keyint=600 / keyint_min=23 / scenecut=40 / intra_refresh=0 / rc_lookahead=0 / rc=cbr / mbtree=0 / bitrate=4400 / ratetol=1.0 / qcomp=0.60 / qpmin=0 / qpmax=69 / qpstep=4 / vbv_maxrate=4400 / vbv_bufsize=3142 / nal_hrd=none / filler=0 / ip_ratio=1.40 / pb_ratio=1.30 / aq=1:1.00
Язык : English
Default : Да
Forced : Нет

Аудио #1
Идентификатор : 2
Формат : AC-3
Формат/Информация : Audio Coding 3
Коммерческое название : Dolby Digital
Идентификатор кодека : A_AC3
Продолжительность : 1 ч. 54 м.
Вид битрейта : Постоянный
Битрейт : 192 Кбит/сек
Каналы : 2 канала
Channel layout : L R
Частота : 48,0 КГц
Частота кадров : 31,250 кадров/сек (1536 SPF)
Битовая глубина : 16 бит
Метод сжатия : С потерями
Размер потока : 158 Мбайт (3%)
Заголовок : Дубляж
Язык : Russian
ServiceKind/String : Complete Main
Default : Да
Forced : Нет

Аудио #2
Идентификатор : 3
Формат : AC-3
Формат/Информация : Audio Coding 3
Коммерческое название : Dolby Digital
Идентификатор кодека : A_AC3
Продолжительность : 1 ч. 54 м.
Вид битрейта : Постоянный
Битрейт : 384 Кбит/сек
Каналы : 6 каналов
Channel layout : L R C LFE Ls Rs
Частота : 48,0 КГц
Частота кадров : 31,250 кадров/сек (1536 SPF)
Битовая глубина : 16 бит
Метод сжатия : С потерями
Размер потока : 316 Мбайт (6%)
Заголовок : MVO ( FDV )
Язык : Russian
ServiceKind/String : Complete Main
Default : Нет
Forced : Нет

Аудио #3
Идентификатор : 4
Формат : AC-3
Формат/Информация : Audio Coding 3
Коммерческое название : Dolby Digital
Идентификатор кодека : A_AC3
Продолжительность : 1 ч. 54 м.
Вид битрейта : Постоянный
Битрейт : 384 Кбит/сек
Каналы : 6 каналов
Channel layout : L R C LFE Ls Rs
Частота : 48,0 КГц
Частота кадров : 31,250 кадров/сек (1536 SPF)
Битовая глубина : 16 бит
Метод сжатия : С потерями
Размер потока : 316 Мбайт (6%)
Заголовок : MVO ( Видеосервис )
Язык : Russian
ServiceKind/String : Complete Main
Default : Нет
Forced : Нет

Аудио #4
Идентификатор : 5
Формат : AC-3
Формат/Информация : Audio Coding 3
Коммерческое название : Dolby Digital
Идентификатор кодека : A_AC3
Продолжительность : 1 ч. 54 м.
Вид битрейта : Постоянный
Битрейт : 384 Кбит/сек
Каналы : 6 каналов
Channel layout : L R C LFE Ls Rs
Частота : 48,0 КГц
Частота кадров : 31,250 кадров/сек (1536 SPF)
Битовая глубина : 16 бит
Метод сжатия : С потерями
Размер потока : 316 Мбайт (6%)
Заголовок : AVO ( Живов )
Язык : Russian
ServiceKind/String : Complete Main
Default : Нет
Forced : Нет

Аудио #5
Идентификатор : 6
Формат : AC-3
Формат/Информация : Audio Coding 3
Коммерческое название : Dolby Digital
Идентификатор кодека : A_AC3
Продолжительность : 1 ч. 55 м.
Вид битрейта : Постоянный
Битрейт : 384 Кбит/сек
Каналы : 6 каналов
Channel layout : L R C LFE Ls Rs
Частота : 48,0 КГц
Частота кадров : 31,250 кадров/сек (1536 SPF)
Битовая глубина : 16 бит
Метод сжатия : С потерями
Размер потока : 316 Мбайт (6%)
Заголовок : AVO ( Володарский )
Язык : Russian
ServiceKind/String : Complete Main
Default : Нет
Forced : Нет

Аудио #6
Идентификатор : 7
Формат : AC-3
Формат/Информация : Audio Coding 3
Коммерческое название : Dolby Digital
Идентификатор кодека : A_AC3
Продолжительность : 1 ч. 54 м.
Вид битрейта : Постоянный
Битрейт : 384 Кбит/сек
Каналы : 6 каналов
Channel layout : L R C LFE Ls Rs
Частота : 48,0 КГц
Частота кадров : 31,250 кадров/сек (1536 SPF)
Битовая глубина : 16 бит
Метод сжатия : С потерями
Размер потока : 316 Мбайт (6%)
Заголовок : AVO ( Есарёв )
Язык : Russian
ServiceKind/String : Complete Main
Default : Нет
Forced : Нет

Аудио #7
Идентификатор : 8
Формат : AC-3
Формат/Информация : Audio Coding 3
Коммерческое название : Dolby Digital
Идентификатор кодека : A_AC3
Продолжительность : 1 ч. 54 м.
Вид битрейта : Постоянный
Битрейт : 384 Кбит/сек
Каналы : 6 каналов
Channel layout : L R C LFE Ls Rs
Частота : 48,0 КГц
Частота кадров : 31,250 кадров/сек (1536 SPF)
Битовая глубина : 16 бит
Метод сжатия : С потерями
Размер потока : 316 Мбайт (6%)
Язык : English
ServiceKind/String : Complete Main
Default : Нет
Forced : Нет

Текст #1
Идентификатор : 9
Формат : UTF-8
Идентификатор кодека : S_TEXT/UTF8
Идентификатор кодека/Информация : UTF-8 Plain Text
Продолжительность : 1 ч. 40 м.
Битрейт : 4 бит/сек
ElementCount : 50
Размер потока : 3,40 Кбайт (0%)
Заголовок : Forced
Язык : Russian
Default : Да
Forced : Да

Текст #2
Идентификатор : 10
Формат : UTF-8
Идентификатор кодека : S_TEXT/UTF8
Идентификатор кодека/Информация : UTF-8 Plain Text
Продолжительность : 1 ч. 49 м.
Битрейт : 87 бит/сек
ElementCount : 1425
Размер потока : 69,8 Кбайт (0%)
Язык : Russian
Default : Нет
Forced : Нет

Текст #3
Идентификатор : 11
Формат : UTF-8
Идентификатор кодека : S_TEXT/UTF8
Идентификатор кодека/Информация : UTF-8 Plain Text
Продолжительность : 1 ч. 47 м.
Битрейт : 49 бит/сек
ElementCount : 1376
Размер потока : 38,7 Кбайт (0%)
Язык : English
Default : Нет
Forced : Нет

Меню
00:00:00.000 : :00:00:00.000
00:04:55.587 : :00:04:55.587
00:10:49.983 : :00:10:49.983
00:16:46.631 : :00:16:46.631
00:23:38.459 : :00:23:38.459
00:30:10.726 : :00:30:10.726
00:39:13.434 : :00:39:13.434
00:47:55.081 : :00:47:55.081
00:55:53.225 : :00:55:53.225
01:00:35.924 : :01:00:35.924
01:06:27.692 : :01:06:27.692
01:13:25.526 : :01:13:25.526
01:20:16.478 : :01:20:16.478
01:27:52.476 : :01:27:52.476
01:35:01.946 : :01:35:01.946
01:45:12.556 : :01:45:12.556

Просьба к переливающим на другие сайты, в оформлении указывайте пожалуйста авторство группы R.G. HD-Films pb.wtf



Скачать Рекрут через торрент http://i73.fastpic.ru/big/2016/0201/47/4285fe8678d8db5100f0527015aacf47.jpg Скачать фильм Рекрут через торрент бесплантно в хорошем качестве Описание: Джеймс Клэйтон учится на последнем курсе Массачусетского технологического института и показывает отличные навыки в компьютерном ... 10 10 4
Info! Золотая раздача, скачанное не засчитывается.
Торрент: Зарегистрирован [2021-01-08 10:40] · скачан: 88 раз
Статус: √ проверено
Размер: 5.45 GB
Как cкачать? Как скачать Рекрут через торрент | UTorrent

28-11-2019 20:33  

Отключить всю рекламу на сайте

08-01-2021 11:17 Рекрут Скачать торрент  

хороший фИЛЬМ. смотреть!pb.wtf



    Дорогой пользователь! Огромная просьба, поблагодарите релизера, оцените раздачу и оставьте свои комментарий, если Вы скачали Рекрут через торрент бесплатно! Внесите свою лепту в развитие PiratBit!
    Комментировать посты могут только пользователи прошедшие не сложную регистрацию
    Показать сообщения:    

    Рекрут через торрент
    Скачать бесплатно Рекрут
    Рекрут скачать торрент
    Рекрут смотреть онлайн
    Cкачать фильм Рекрут бесплатно
    Рекрут скачать торрент в хорошем качестве
    Рекрут смотреть онлайн бесплатно в хорошем качестве


    Вы не можете начинать темы
    Вы не можете отвечать на сообщения
    Вы не можете редактировать свои сообщения
    Вы не можете удалять свои сообщения
    Вы не можете голосовать в опросах
    Вы не можете прикреплять файлы к сообщениям
    Вы можете скачивать файлы