2 сезон

iTunes

MVO

1

2 сезон

iTunes

iTunes

1 сезон

RePack

30

Новинка

ВАЖНО

ИГРА 18+

pack

RePack

MK11
pack

Легкие деньги

RePack

jed

RePack

fifa19

RePack

RDR2

RePack

NEED FOR SPEED™ PAYBACK

4 сезон

9 сезон

Бесстыжие 9 сезон

Все сериалы

все сериалы на PB.wtf

RePack

FAR CRY 5

Anonymous, доброй ночи, мы не успеваем собрать деньги на оплату серверов за декабрь и январь, помогите нам пожалуйста в это трудное время. В качестве благодарности мы отключим Вам всю рекламу на сайте (укажите свой ник в строку Ваше имя)!

×
  
Magnet ссылка

Свой человек / The Insider (Майкл Манн) [1999 г., Триллер, драма, биография, BDRip 720p / 60 FPS] MVO + AVO - от R.G. HD-Films pb.wtf

Свой человек через торрент pb.wtf

Раздают: 5 [ 0 KB/s ]
Размер: 6.47 GB | Добавлен: 8 д. назад | Торрент скачан:36 раз
Скачать  

08-01-2021 13:32 Свой человек Скачать торрент  

Свой человек / The Insider
Год выпуска: 1999
Страна: США
Жанр: Триллер, драма, биография
Продолжительность: 02:37:46
Перевод: Профессиональный многоголосый, Авторский
Субтитры: Russian, English

Режиссер: Майкл Манн

Бюджет: $90 000 000
Премьера в мире: 28 октября 1999

rating

В ролях: Аль Пачино, Рассел Кроу, Кристофер Пламмер, Дайан Венора, Филип Бэйкер Холл, Линдсэй Круз, Деби Мазар, Стивен Тоболовски, Колм Фиори, Брюс МакГилл.

Описание: Джеффри Уайгэнда увольняют с поста вице-президента крупнейшей табачной компании за то, что он протестует против использования в табачной продукции компонента, вызывающего у курильщиков наркотическую зависимость. Лоуэлл Бергман, продюсер популярного телешоу, узнает об этом и убеждает Уайгэнда выступить с разоблачительным интервью по телевидению…
Естественно, это очень не нравится столпам табачной индустрии, заверяющих в безвредности производимой продукции. Олигархи принимают самые суровые меры, чтобы информация не стала достоянием гласности. От Уайгэнда уходит жена, Лоуэлла Бергмана отправляют в отпуск. Там, где задействованы большие деньги, бесполезно бороться за справедливость, но Лоуэлл и Уайгэнд не прекращают борьбу.


Качество: BDRip 720p / 60 FPS
Формат: MKV
Видео кодек: H.264
Аудио кодек: AC3
Видео: x264, 1280 x 536 ( 2,40:1 ), 4906 kbps, 60,000 fps, ( 0.119 bpp)
Аудио#1: Russian: 48 kHz, AC3, 5.1 ch, 16 bits, 384 kbps MVO (R5)
Аудио#2: Russian: 48 kHz, AC3, 2.0 ch, 16 bits, 192 kbps AVO ( Живов )
Аудио#3: English: 48 kHz, AC3, 5.1 ch, 16 bits, 384 kbps Оригинал
Релиз от: Автор рипа: slaventi-69
x264 info: frame I:1979 Avg QP:15.19 size: 95421
x264 info: frame P:123497 Avg QP:16.83 size: 29686
x264 info: frame B:442536 Avg QP:17.69 size: 4408
x264 info: consecutive B-frames: 1.1% 2.5% 3.7% 16.4% 50.2% 26.1%


Общее
Уникальный идентификатор : 59436277577383803399136309983443577777 (0x2CB702BBB8FC1E456254DFDA6A3A6BB1)
Полное имя : E:\The.Insider.(1999).BDRip.720p.(60 Fps).mkv
Формат : Matroska
Версия формата : Version 4
Размер файла : 6,47 Гбайт
Продолжительность : 2 ч. 37 м.
Общий поток : 5871 Кбит/сек
Название фильма : Свой человек / The Insider (1999) BDRip 720p (60 Fps)
Дата кодирования : UTC 2021-01-07 10:44:58
Программа кодирования : mkvmerge v35.0.0 ('All The Love In The World') 64-bit
Библиотека кодирования : libebml v1.3.9 + libmatroska v1.5.2

Видео
Идентификатор : 1
Формат : AVC
Формат/Информация : Advanced Video Codec
Профиль формата : High@L4.1
Настройки формата : CABAC / 9 Ref Frames
Параметр CABAC формата : Да
Параметр RefFrames формата : 9 кадров
Идентификатор кодека : V_MPEG4/ISO/AVC
Продолжительность : 2 ч. 37 м.
Битрейт : 4906 Кбит/сек
Номинальный битрейт : 5200 Кбит/сек
Ширина : 1280 пикселей
Высота : 536 пикселей
Соотношение сторон : 2,40:1
Режим частоты кадров : Постоянный
Частота кадров : 60,000 кадров/сек
Цветовое пространство : YUV
Субдискретизация насыщенности : 4:2:0
Битовая глубина : 8 бит
Тип развёртки : Прогрессивная
Бит/(Пиксели*Кадры) : 0.119
Размер потока : 5,41 Гбайт (84%)
Заголовок : slaventi-69 ( R.G. HD-Films | 60 fps )
Библиотека кодирования : x264 core 157 r2958 57baac4
Настройки программы : cabac=1 / ref=9 / deblock=1:-1:-1 / analyse=0x3:0x133 / me=umh / subme=9 / psy=1 / psy_rd=1.00:0.00 / mixed_ref=1 / me_range=32 / chroma_me=1 / trellis=2 / 8x8dct=1 / cqm=0 / deadzone=21,11 / fast_pskip=1 / chroma_qp_offset=4 / threads=10 / lookahead_threads=4 / sliced_threads=0 / nr=0 / decimate=1 / interlaced=0 / bluray_compat=0 / constrained_intra=0 / bframes=5 / b_pyramid=2 / b_adapt=2 / b_bias=4 / direct=2 / weightb=1 / open_gop=0 / weightp=2 / keyint=600 / keyint_min=23 / scenecut=40 / intra_refresh=0 / rc_lookahead=0 / rc=cbr / mbtree=0 / bitrate=5200 / ratetol=1.0 / qcomp=0.60 / qpmin=0 / qpmax=69 / qpstep=4 / vbv_maxrate=5200 / vbv_bufsize=3714 / nal_hrd=none / filler=0 / ip_ratio=1.40 / pb_ratio=1.30 / aq=1:1.00
Язык : English
Default : Да
Forced : Нет

Аудио #1
Идентификатор : 2
Формат : AC-3
Формат/Информация : Audio Coding 3
Коммерческое название : Dolby Digital
Идентификатор кодека : A_AC3
Продолжительность : 2 ч. 37 м.
Вид битрейта : Постоянный
Битрейт : 384 Кбит/сек
Каналы : 6 каналов
Channel layout : L R C LFE Ls Rs
Частота : 48,0 КГц
Частота кадров : 31,250 кадров/сек (1536 SPF)
Битовая глубина : 16 бит
Метод сжатия : С потерями
Размер потока : 433 Мбайт (7%)
Заголовок : MVO (R5)
Язык : Russian
ServiceKind/String : Complete Main
Default : Да
Forced : Нет

Аудио #2
Идентификатор : 3
Формат : AC-3
Формат/Информация : Audio Coding 3
Коммерческое название : Dolby Digital
Идентификатор кодека : A_AC3
Продолжительность : 2 ч. 37 м.
Вид битрейта : Постоянный
Битрейт : 192 Кбит/сек
Каналы : 2 канала
Channel layout : L R
Частота : 48,0 КГц
Частота кадров : 31,250 кадров/сек (1536 SPF)
Битовая глубина : 16 бит
Метод сжатия : С потерями
Размер потока : 217 Мбайт (3%)
Заголовок : AVO (Живов)
Язык : Russian
ServiceKind/String : Complete Main
Default : Нет
Forced : Нет

Аудио #3
Идентификатор : 4
Формат : AC-3
Формат/Информация : Audio Coding 3
Коммерческое название : Dolby Digital
Идентификатор кодека : A_AC3
Продолжительность : 2 ч. 37 м.
Вид битрейта : Постоянный
Битрейт : 384 Кбит/сек
Каналы : 6 каналов
Channel layout : L R C LFE Ls Rs
Частота : 48,0 КГц
Частота кадров : 31,250 кадров/сек (1536 SPF)
Битовая глубина : 16 бит
Метод сжатия : С потерями
Размер потока : 433 Мбайт (7%)
Заголовок : Original
Язык : English
ServiceKind/String : Complete Main
Default : Нет
Forced : Нет

Текст #1
Идентификатор : 5
Формат : UTF-8
Идентификатор кодека : S_TEXT/UTF8
Идентификатор кодека/Информация : UTF-8 Plain Text
Продолжительность : 2 ч. 33 м.
Битрейт : 88 бит/сек
ElementCount : 1246
Размер потока : 100,0 Кбайт (0%)
Язык : Russian
Default : Да
Forced : Нет

Текст #2
Идентификатор : 6
Формат : UTF-8
Идентификатор кодека : S_TEXT/UTF8
Идентификатор кодека/Информация : UTF-8 Plain Text
Продолжительность : 2 ч. 36 м.
Битрейт : 66 бит/сек
ElementCount : 1964
Размер потока : 76,3 Кбайт (0%)
Язык : English
Default : Нет
Forced : Нет

Меню
00:00:00.000 : :Opening Credits/Lebanon
00:06:14.499 : :Bad News
00:12:41.343 : :Interview In South Beirut
00:15:12.244 : :The Anonymous Package Arrives
00:17:23.291 : :Search For A Consultant
00:22:30.932 : :Meeting At The Seelbach
00:29:00.029 : :Don't Talk
00:37:42.843 : :Lowell Confronts Jeff
00:43:55.132 : :Looking For An Angle
00:48:01.503 : :Starting A New Life
00:51:18.033 : :Who's Outside?
00:54:29.432 : :Moment Of Decision
00:57:20.061 : :Cards On The Table
01:01:10.875 : :A Legal Loophole
01:03:49.242 : :Terror At Home
01:12:11.327 : :The First Taped Interview
01:17:26.767 : :Heightened Security
01:23:00.892 : :A New Gag Order
01:30:45.440 : :Deposition In Mississippi
01:40:28.772 : :Tortious Interference
01:43:58.523 : :An Abridged Version Of The Show
01:51:27.681 : :Skeletons In The Closet
01:56:44.080 : :Damage Control
02:03:34.281 : :Paying The Highest Price
02:15:42.551 : :All The News That's Fit To Print
02:19:20.809 : :Other Considerations
02:23:33.730 : :A Legacy Betrayed
02:26:37.747 : :Victory, At What Cost?
02:30:18.968 : :Calling It Quits
02:33:18.105 : :End Credits

Просьба к переливающим на другие сайты, в оформлении указывайте пожалуйста авторство группы R.G. HD-Films pb.wtf



Скачать Свой человек через торрент http://i.imgur.com/2yHMAvO.jpg Скачать фильм Свой человек через торрент бесплантно в хорошем качестве Описание: Джеффри Уайгэнда увольняют с поста вице-президента крупнейшей табачной компании за то, что он протестует против использования в ... 10 10 3
Торрент: Зарегистрирован [2021-01-08 13:32] · скачан: 36 раз
Статус: √ проверено
Размер: 6.47 GB
Как cкачать? Как скачать Свой человек через торрент | UTorrent

28-11-2019 20:33  

Отключить всю рекламу на сайте

08-01-2021 14:13 Свой человек Скачать торрент  

1080р будет?pb.wtf



08-01-2021 14:16 Свой человек Скачать торрент  

edapush писал(а):

1080р будет?

Простите но от меня нет.pb.wtf



    Дорогой пользователь! Огромная просьба, поблагодарите релизера, оцените раздачу и оставьте свои комментарий, если Вы скачали Свой человек через торрент бесплатно! Внесите свою лепту в развитие PiratBit!
    Комментировать посты могут только пользователи прошедшие не сложную регистрацию
    Показать сообщения:    

    Свой человек через торрент
    Скачать бесплатно Свой человек
    Свой человек скачать торрент
    Свой человек смотреть онлайн
    Cкачать фильм Свой человек бесплатно
    Свой человек скачать торрент в хорошем качестве
    Свой человек смотреть онлайн бесплатно в хорошем качестве


    Вы не можете начинать темы
    Вы не можете отвечать на сообщения
    Вы не можете редактировать свои сообщения
    Вы не можете удалять свои сообщения
    Вы не можете голосовать в опросах
    Вы не можете прикреплять файлы к сообщениям
    Вы можете скачивать файлы