Доктор Стрэндж

Лицензия

Добыча

Дубляж

Уэнсдэй

1 сезон

Тор

Дубляж

В эфире

Дубляж

Там, где раки поют

MVO

Властелин колец

1 сезон

Deluxe

pack

Рекомендуем

30

Пиратка

ВАЖНО

ВАЖНО

Ghostwire

Пиратка

jed

RePack

nioh2

RePack

RDR2

RePack

NEED FOR SPEED™ PAYBACK

RePack

скачать торрент

Кинопоиск HD

Острые козырьки 6 сезон

6 сезон

FAR CRY 6

RePack

скачать торрент

Лицензия

скачать торрент

MVO

1

1 сезон

скачать торрент

1 сезон

скачать торрент

Лицензия

  

Проект «Анна Николаевна» / Сезон: 2 / Серии: 0- из 8 (Максим Пежемский, Александр Карпиловский) [2021, Комедия, фантастика, драма, WEBRip, (Версия 18+)]

Проект «Анна Николаевна» через торрент pb.wtf

Размер: 976 MB | Добавлен: 1 год 10 мес. назад | Торрент скачан:191 раз
Смотреть онлайн | Скачать   

08-01-2021 19:22 Проект «Анна Николаевна» Скачать торрент  

Проект «Анна Николаевна»
Год выпуска: 2021
Страна: Россия
Выпущено: КиноПоиск HD, Продюсерская компания «Среда»
Жанр: Комедия, фантастика, драма
Продолжительность: ~ 01:06:00
Субтитры: отсутствуют
Версия 18+. Внимание! Присутствует ненормативная лексика.

Режиссер: Максим Пежемский, Александр Карпиловский



В ролях: Зоя Бербер, Антон Филипенко, Сергей Гармаш, Кузьма Сапрыкин, Фёдор Лавров, Маруся Климова, Антон Васильев, Никита Тарасов, Анна Котова, Ирина Розанова

Описание: Страна сходит с ума в ожидании конца света в 2012 году. Спасти мир должна новейшая Российская разработка. Новогодняя серия народной сай-фай комедии Проект «Анна Николаевна» перенесет зрителей в конец 2012 года, когда, согласно календарю майя, должен был наступить конец света. В канун праздника у майора Пожарского срывается свадьба, а над Корчмой пролетает НЛО, который со взрывом приземляется в лесу. Расследовать происшедшее присылают Антона Николаевича Королева из Москвы — опытный образец андроида-полицейского. Слегка недоработанный Антон Николаевич, хоть и ведет себя необычно, внешне ничем не отличается от людей. Вскоре становится понятно, что его создатели немного перемудрили с настройками — новый робот-полицейский на самом деле вовсе не мужчина…

Качество: WEBRip
Формат: AVI

Видео: 720x304 (2.37:1), 25 fps, XviD build 73 ~1650 kbps avg, 0.302 bit/pixel
Аудио #01: 48.0 kHz, AC3 Dolby Digital, 2/0 (L,R) ch, ~ 192 kbps | C цензурой
Аудио #02: 48.0 kHz, AC3 Dolby Digital, 2/0 (L,R) ch, ~ 192 kbps | без цензуры 18+
скриншот  скриншот  скриншот  скриншот  скриншот  

General
Complete name : D:\Proekt.Anna.Nikolaevna.s02.WEB-DLRip.25Kuzmich\Proekt.Anna.Nikolaevna.s02e00.WEB-DLRip.25Kuzmich.avi
Format : AVI
Format/Info : Audio Video Interleave
File size : 976 MiB
Duration : 1 h 6 min
Overall bit rate : 2 048 kb/s
Writing application : VirtualDubMod 1.5.10.3 (build 2550/release)
Writing library : VirtualDubMod build 2550/release

Video
ID : 0
Format : MPEG-4 Visual
Format profile : Advanced [email protected]
Format settings : BVOP1
Format settings, BVOP : 1
Format settings, QPel : No
Format settings, GMC : No warppoints
Format settings, Matrix : Default (MPEG)
Codec ID : XVID
Codec ID/Hint : XviD
Duration : 1 h 6 min
Bit rate : 1 650 kb/s
Width : 720 pixels
Height : 304 pixels
Display aspect ratio : 2.35:1
Frame rate : 25.000 FPS
Color space : YUV
Chroma subsampling : 4:2:0
Bit depth : 8 bits
Scan type : Progressive
Compression mode : Lossy
Bits/(Pixel*Frame) : 0.302
Stream size : 786 MiB (81%)
Writing library : XviD 73

Audio #1
ID : 1
Format : AC-3
Format/Info : Audio Coding 3
Codec ID : 2000
Duration : 1 h 6 min
Bit rate mode : Constant
Bit rate : 192 kb/s
Channel(s) : 2 channels
Channel positions : Front: L R
Sampling rate : 48.0 kHz
Frame rate : 31.250 FPS (1536 SPF)
Bit depth : 16 bits
Compression mode : Lossy
Stream size : 91.5 MiB (9%)
Alignment : Split accross interleaves
Interleave, duration : 40 ms (1.00 video frame)
Interleave, preload duratio : 500 ms
Service kind : Complete Main

Audio #2
ID : 2
Format : AC-3
Format/Info : Audio Coding 3
Codec ID : 2000
Duration : 1 h 6 min
Bit rate mode : Constant
Bit rate : 192 kb/s
Channel(s) : 2 channels
Channel positions : Front: L R
Sampling rate : 48.0 kHz
Frame rate : 31.250 FPS (1536 SPF)
Bit depth : 16 bits
Compression mode : Lossy
Stream size : 91.5 MiB (9%)
Alignment : Split accross interleaves
Interleave, duration : 40 ms (1.00 video frame)
Interleave, preload duratio : 500 ms
Service kind : Complete Main

Раздача ведётся путём добавления новых серий, при каждом добавлении создаётся новый торрент. Чтобы начать докачку новой серии, пользователям необходимо сделать следующее:

- Остановить скачивание.
- Удалить старый торрент у себя из клиента (старые серии удалять не надо).
- Скачать новый торрент и запустить его у себя в клиенте вместо старого, при этом указать клиенту путь в старую папку куда и должно происходить скачивание новых серий.

Ваш клиент при этом должен произвести хеширование (проверку) старой папки (если не производит сам - помогите ему сделать это), и будет докачивать только те серии которых у вас ещё нет. Старые серии при этом не удаляются, а продолжают раздаваться!
Если вы уже удалили старые серии, то предотвратить повторную закачку старых серий можно, отжав галочку в соответствующих местах при запуске нового торрента. По возможности, желательно не удалять старые серии как можно дольше, чтобы релизер не столько продолжал раздавать старые серии, а смог сконцентрироваться на новых.



Скачать Проект «Анна Николаевна» через торрент http://a.radikal.ru/a35/2101/fb/52c41fe34a6a.jpg Скачать, смотреть онлайн Проект «Анна Николаевна» бесплантно в хорошем качестве Описание: Страна сходит с ума в ожидании конца света в 2012 году. Спасти мир должна новейшая Российская разработка. Новогодняя серия ... 8.3 10 10
Info! Золотая раздача, скачанное не засчитывается.
Торрент: Зарегистрирован [2021-01-08 19:22] · скачан: 191 раз
Статус: √ проверено
Размер: 976 MB
Как cкачать? Как скачать Проект «Анна Николаевна» через торрент | UTorrent

% Раздел Тема Автор DL S | L
Наши сериалы [ 18.8 GB ] Проект «Анна Николаевна» / Сезон: 2 / Серии: 1-8 из 8 | | 1080p, (Версия 18+ bober100 Скачать
1 | 0
Наши сериалы [ 13.36 GB ] Проект «Анна Николаевна» / Сезон: 2 / Серии: 1-8 из 8 | | 720p, (Версия 18+ bober100 Скачать
1 | 0
Наши сериалы [ 34.29 GB ] Проект «Анна Николаевна» / Сезон: 2 / Серии: 1-8 из 8 | | 2160p, (Версия 18+ bober100 Скачать
1 | 0
Зарубежные сериалы [ 8.74 GB ] Проект «Анна Николаевна» / Сезон: 2 / Серии: 1-8 из 8 | | WEBRip-AVC, (Версия 18+ bober100 Скачать
1 | 0
Наши сериалы [ 6.91 GB ] Проект «Анна Николаевна» / Сезон: 2 / Серии: 1-8 из 8 | | WEBRip, (Версия 18+ bober100 Скачать
1 | 0
Наши сериалы [ 855 MB ] Проект «Анна Николаевна» / Сезон: 2 / Серии: 0- из 8 | | WEBRip-AVC, (Версия 18+ bober100 Скачать
1 | 0
Наши сериалы [ 2.52 GB ] Проект «Анна Николаевна» / Сезон: 2 / Серии: 0- из 8 | | 1080p, (Версия 18+ bober100 Скачать
1 | 0

28-11-2019 20:33  


Отключить вcю реклaмy на сайте, в т.ч. и в плеере онлайн просмотра!

08-01-2021 19:50 Проект «Анна Николаевна» Скачать торрент  

редкосный калл



17-01-2021 17:32 Проект «Анна Николаевна» Скачать торрент  

Дерьмо... такой фильм обосрать умудрились...



    Дорогой пользователь! Огромная просьба, поблагодарите релизера, оцените раздачу и оставьте свои комментарий, если Вы скачали Проект «Анна Николаевна» через торрент бесплатно!!
    Комментировать посты могут только пользователи прошедшие не сложную регистрацию
    Показать сообщения:    


    Проект «Анна Николаевна» через торрент
    Скачать бесплатно Проект «Анна Николаевна»
    Проект «Анна Николаевна» скачать торрент
    Проект «Анна Николаевна» смотреть онлайн
    Cкачать фильм Проект «Анна Николаевна» бесплатно
    Проект «Анна Николаевна» скачать торрент в хорошем качестве
    Проект «Анна Николаевна» смотреть онлайн бесплатно в хорошем качестве
    Вы не можете начинать темы
    Вы не можете отвечать на сообщения
    Вы не можете редактировать свои сообщения
    Вы не можете удалять свои сообщения
    Вы не можете голосовать в опросах
    Вы не можете прикреплять файлы к сообщениям
    Вы можете скачивать файлы
    Проект «Анна Николаевна» / Сезон: 2 / Серии: 0- из 8 [2021, Комедия, фантастика, драма, WEBRip, ] смотреть онлайн, скачать торрент picoco.icu