2 сезон

iTunes

MVO

1

2 сезон

iTunes

iTunes

1 сезон

RePack

30

Ultimate

ВАЖНО

ИГРА 18+

pack

RePack

MK11
pack

Легкие деньги

RePack

jed

RePack

fifa19

RePack

RDR2

RePack

NEED FOR SPEED™ PAYBACK

4 сезон

9 сезон

Бесстыжие 9 сезон

Все сериалы

все сериалы на PB.wtf

RePack

FAR CRY 5

Anonymous, добрый вечер, мы не успеваем собрать деньги на оплату серверов за декабрь и январь, помогите нам пожалуйста в это трудное время. В качестве благодарности мы отключим Вам всю рекламу на сайте (укажите свой ник в строку Ваше имя)!

×
  
Magnet ссылка

Оцепеневшие от страха / Aterrados (Демиан Рунья) [2018 г., Ужасы, BDRip] DUB (iTunes) pb.wtf

Оцепеневшие от страха через торрент pb.wtf

Раздают: 17 [ 162 KB/s ]
Размер: 1.42 GB | Добавлен: 7 д. назад | Торрент скачан:91 раз
Скачать  

09-01-2021 12:26 Оцепеневшие от страха Скачать торрент  

Оцепеневшие от страха / Aterrados
Год выпуска: 2018

Страна: Аргентина

Жанр: Ужасы

Продолжительность: 01:28:00

Перевод: Дубляж - iTunes

Субтитры: Отсутствуют

Режиссер: Демиан Рунья

rating

В ролях: Арьель Чаваррия, Максимилиано Гионе, Норберто Гонсало, Уго Албрич, Джордж Л. Льюис, Эльвира Онетто, Агустин Риттано, Демиан Саломон, Наталия Сеньоралес, Джульета Валлина

Описание: Леденящие душу жуткие события сотрясают пригородное местечко, где соседствуют три уютных домика. Неведомая и невидимая сила зверски убивает женщину на глазах мужа. Ночью у кровати его соседа появляется ужасный монстр. А мальчик из дома напротив, погибший под колесами автомобиля, возвращается с кладбища и садится за кухонный стол. Искать причину необъяснимых кошмаров берутся три специалиста по паранормальным явлениям и детектив из отдела по расследованию убийств.
Качество: BDRip
Формат: AVI
Видео кодек: XviD
Аудио кодек: AC3
Видео: XviD, 1918 Кбит/с, 720x304
Аудио: Русский, AC3, 6 ch, 384 Кбит/сек
Видео
Идентификатор : 0
Формат : MPEG-4 Visual
Профиль формата : Advanced Simple@L5
Настройки формата : BVOP1 / Custom Matrix
Параметр BVOP формата : 1
Параметр QPel формата : Нет
Параметр GMC формата : Без точки перехода
Параметр матрицы формата : Выборочная
Идентификатор кодека : XVID
Идентификатор кодека/Подсказка : XviD
Продолжительность : 1 ч. 28 м.
Битрейт : 1918 Кбит/сек
Ширина : 720 пикселей
Высота : 304 пикселя
Соотношение сторон : 2,35:1
Частота кадров : 23,976 (24000/1001) кадра/сек
Цветовое пространство : YUV
Субдискретизация насыщенности : 4:2:0
Битовая глубина : 8 бит
Тип развёртки : Прогрессивная
Метод сжатия : С потерями
Бит/(Пиксели*Кадры) : 0.365
Размер потока : 1,18 Гбайт (83%)
Библиотека кодирования : XviD 73

Аудио
Идентификатор : 1
Формат : AC-3
Формат/Информация : Audio Coding 3
Коммерческое название : Dolby Digital
Идентификатор кодека : 2000
Продолжительность : 1 ч. 28 м.
Вид битрейта : Постоянный
Битрейт : 384 Кбит/сек
Каналы : 6 каналов
ChannelLayout : L R C LFE Ls Rs
Частота : 48,0 КГц
Частота кадров : 31,250 кадров/сек (1536 SPF)
Метод сжатия : С потерями
Размер потока : 242 Мбайт (17%)
Выравнивание : Разделение по промежуткам
Продолжительность промежутка : 42 мс. (1,00 видеокадр)
Время предзагрузки промежутка : 500 мс.
ServiceKind/String : Complete Main

скриншот   скриншот   скриншот   скриншот  

pb.wtf



Скачать Оцепеневшие от страха через торрент https://pic1.kartinco.top/images/12/gn48a.jpg Скачать фильм Оцепеневшие от страха через торрент бесплантно в хорошем качестве Описание: Леденящие душу жуткие события сотрясают пригородное местечко, где соседствуют три уютных домика. Неведомая и невидимая сила ... 10 10 3
Торрент: Зарегистрирован [2021-01-09 12:26] · скачан: 91 раз
Статус: √ проверено
Размер: 1.42 GB
Как cкачать? Как скачать Оцепеневшие от страха через торрент | UTorrent

% Раздел Тема Автор DL S | L
Фильмы [HD 720p, 1080p] (Хороший звук DUB, MVO) [ 3.51 GB ] Оцепеневшие от страха / Aterrados / Terrified [2018 BDRip 720p] +MVO [HDRezka Studio] bober100 Скачать
20 | 0
Фильмы 2018 [DVDrip, WEB-DLRip, HDrip] (DUB, MVO) [ 2.05 GB ] Оцепеневшие от страха / Aterrados [2020 HDRip-AVC] от MediaBit Lithuania Скачать
19 | 0
Фильмы [HD 720p, 1080p] (Хороший звук DUB, MVO) [ 8.43 GB ] Оцепеневшие от страха / Aterrados / Terrified [2018 BDRip 1080p] +MVO [HDRezka Studio] bober100 Скачать
21 | 0
Фильмы (WEB-DL 720p, 1080p) [ 3.07 GB ] Оцепеневшие от страха / Aterrados [2018 WEB-DL 1080p] bober100 Скачать
9 | 0
Фильмы 2018 [DVDrip, WEB-DLRip, HDrip] (DUB, MVO) [ 1.41 GB ] Оцепеневшие от страха / Aterrados [2018 WEB-DLRip-AVC] bober100 Скачать
2 | 0
Фильмы 2018 [DVDrip, WEB-DLRip, HDrip] (DUB, MVO) [ 1.46 GB ] Оцепеневшие от страха / Aterrados [2018 WEB-DLRip] killermax2013 Скачать
3 | 0

28-11-2019 20:33  

Отключить всю рекламу на сайте

    Дорогой пользователь! Огромная просьба, поблагодарите релизера, оцените раздачу и оставьте свои комментарий, если Вы скачали Оцепеневшие от страха через торрент бесплатно! Внесите свою лепту в развитие PiratBit!
    Комментировать посты могут только пользователи прошедшие не сложную регистрацию
    Показать сообщения:    

    Оцепеневшие от страха через торрент
    Скачать бесплатно Оцепеневшие от страха
    Оцепеневшие от страха скачать торрент
    Оцепеневшие от страха смотреть онлайн
    Cкачать фильм Оцепеневшие от страха бесплатно
    Оцепеневшие от страха скачать торрент в хорошем качестве
    Оцепеневшие от страха смотреть онлайн бесплатно в хорошем качестве


    Вы не можете начинать темы
    Вы не можете отвечать на сообщения
    Вы не можете редактировать свои сообщения
    Вы не можете удалять свои сообщения
    Вы не можете голосовать в опросах
    Вы не можете прикреплять файлы к сообщениям
    Вы можете скачивать файлы