2 сезон

iTunes

MVO

1

2 сезон

iTunes

iTunes

1 сезон

RePack

30

Новинка

ВАЖНО

ИГРА 18+

pack

RePack

MK11
pack

Легкие деньги

RePack

jed

RePack

fifa19

RePack

RDR2

RePack

NEED FOR SPEED™ PAYBACK

4 сезон

9 сезон

Бесстыжие 9 сезон

Все сериалы

все сериалы на PB.wtf

RePack

FAR CRY 5

Anonymous, доброй ночи, мы не успеваем собрать деньги на оплату серверов за декабрь и январь, помогите нам пожалуйста в это трудное время. В качестве благодарности мы отключим Вам всю рекламу на сайте (укажите свой ник в строку Ваше имя)!

×
  
Magnet ссылка

Оцепеневшие от страха / Aterrados (Демиан Рунья) [2020, Ужасы, HDRip-AVC] [DUB] [iTunes] от MediaBit pb.wtf

Оцепеневшие от страха через торрент pb.wtf

Раздают: 7 [ 0 KB/s ]
Размер: 2.05 GB | Добавлен: 7 д. назад | Торрент скачан:122 раза
Скачать  

09-01-2021 20:46 Оцепеневшие от страха Скачать торрент  


Оцепеневшие от страха / Aterrados
Информация о фильме:
Название: Оцепеневшие от страха
Оригинальное название: Aterrados
Год выхода: 2018
Жанр: Ужасы
Режиссер: Демиан Рунья

В ролях: Максимилиано Гионе, Норберто Гонсало, Эльвира Онетто, Агустин Риттано, Демиан Саломон, Джордж Л. Льюис, Джульета Валлина, Арьель Чаваррия, Уго Албрич, Наталия Сеньоралес

Описание: Леденящие душу жуткие события сотрясают пригородное местечко, где соседствуют три уютных домика. Неведомая и невидимая сила зверски убивает женщину на глазах мужа. Ночью у кровати его соседа появляется ужасный монстр. А мальчик из дома напротив, погибший под колесами автомобиля, возвращается с кладбища и садится за кухонный стол. Искать причину необъяснимых кошмаров берутся три специалиста по паранормальным явлениям и детектив из отдела по расследованию убийств.



Страна: Аргентина
Студия: Instituto Nacional de Cine y Artes Audiovisuales (INCAA), Machaco Films
Продолжительность: 01:28:00
Перевод: Профессиональный (полное дублирование) - iTunes



Информация о файле:
Кодек: AVC
Формат: MKV
Качество: HDRip-AVC
Видео: MPEG-4 AVC, 1024x426, 23.976 fps, 2494 kbps
Аудио RU: AC3, 6 ch, 48 kHz, 384 kbps
Аудио EN: AC3, 6 ch, 48 kHz, 448 kbps
Субтитры: Русские (Full), украинские (Full), Английские (SDH)
Навигация по главам: Да

x264 info: frame I:816 Avg QP:12.76 size: 65895
x264 info: frame P:22943 Avg QP:15.31 size: 29284
x264 info: frame B:102838 Avg QP:17.62 size: 8946
x264 info: consecutive B-frames: 1.4% 1.2% 4.4% 8.3% 19.0% 30.7% 14.1% 5.0% 12.7% 1.5% 1.0% 0.5% 0.2%
General
Unique ID : 238811727976743637569498597958780978855 (0xB3A9773E8BC9D18C493D768A334406A7)
Complete name : D:uTorrentРипы_от_wolf1245_MediaBitAterrados.2018.iTunes.2.05Gb.HDRip-AVC_wolf1245_MediaBit.mkv
Format : Matroska
Format version : Version 4
File size : 2.05 GiB
Duration : 1 h 28 min
Overall bit rate : 3 328 kb/s
Movie name : Aterrados.2018.iTunes.2.05Gb.HDRip-AVC_wolf1245_MediaBit
Encoded date : UTC 2021-01-09 20:34:05
Writing application : mkvmerge v52.0.0 ('Secret For The Mad') 64-bit
Writing library : libebml v1.4.1 + libmatroska v1.6.2
Cover : Yes
Attachments : cover.jpg / cover.jpg
Video
ID : 1
Format : AVC
Format/Info : Advanced Video Codec
Format profile : High@L4.1
Format settings : CABAC / 12 Ref Frames
Format settings, CABAC : Yes
Format settings, Reference frames : 12 frames
Codec ID : V_MPEG4/ISO/AVC
Duration : 1 h 28 min
Bit rate : 2 494 kb/s
Width : 1 024 pixels
Height : 426 pixels
Display aspect ratio : 2.40:1
Frame rate mode : Constant
Frame rate : 23.976 (24000/1001) FPS
Color space : YUV
Chroma subsampling : 4:2:0
Bit depth : 8 bits
Scan type : Progressive
Bits/(Pixel*Frame) : 0.238
Stream size : 1.53 GiB (75%)
Title : _wolf1245_MediaBit
Writing library : x264 core 157 r2958 57baac4
Encoding settings : cabac=1 / ref=12 / deblock=1:-3:-3 / analyse=0x3:0x133 / me=umh / subme=10 / psy=1 / psy_rd=1.05:0.05 / mixed_ref=1 / me_range=48 / chroma_me=1 / trellis=2 / 8x8dct=1 / cqm=0 / deadzone=21,11 / fast_pskip=0 / chroma_qp_offset=-3 / threads=10 / lookahead_threads=2 / sliced_threads=0 / nr=0 / decimate=0 / interlaced=0 / bluray_compat=0 / constrained_intra=0 / bframes=12 / b_pyramid=2 / b_adapt=2 / b_bias=0 / direct=3 / weightb=1 / open_gop=0 / weightp=2 / keyint=240 / keyint_min=24 / scenecut=40 / intra_refresh=0 / rc_lookahead=100 / rc=2pass / mbtree=0 / bitrate=2494 / ratetol=1.0 / qcomp=0.60 / qpmin=0 / qpmax=69 / qpstep=4 / cplxblur=20.0 / qblur=0.5 / vbv_maxrate=50000 / vbv_bufsize=62500 / nal_hrd=none / filler=0 / ip_ratio=1.40 / pb_ratio=1.30 / aq=1:0.80
Language : English
Default : Yes
Forced : No
Audio #1
ID : 2
Format : AC-3
Format/Info : Audio Coding 3
Commercial name : Dolby Digital
Codec ID : A_AC3
Duration : 1 h 28 min
Bit rate mode : Constant
Bit rate : 384 kb/s
Channel(s) : 6 channels
Channel layout : L R C LFE Ls Rs
Sampling rate : 48.0 kHz
Frame rate : 31.250 FPS (1536 SPF)
Compression mode : Lossy
Stream size : 242 MiB (12%)
Title : DUB | iTunes
Language : Russian
Service kind : Complete Main
Default : Yes
Forced : No
Audio #2
ID : 3
Format : AC-3
Format/Info : Audio Coding 3
Commercial name : Dolby Digital
Codec ID : A_AC3
Duration : 1 h 28 min
Bit rate mode : Constant
Bit rate : 448 kb/s
Channel(s) : 2 channels
Channel layout : L R
Sampling rate : 48.0 kHz
Frame rate : 31.250 FPS (1536 SPF)
Compression mode : Lossy
Stream size : 282 MiB (13%)
Title : Original
Language : English
Service kind : Complete Main
Default : No
Forced : No
Text #1
ID : 4
Format : UTF-8
Codec ID : S_TEXT/UTF8
Codec ID/Info : UTF-8 Plain Text
Duration : 1 h 22 min
Bit rate : 63 b/s
Count of elements : 739
Stream size : 38.6 KiB (0%)
Title : Full
Language : Russian
Default : No
Forced : No
Text #2
ID : 5
Format : UTF-8
Codec ID : S_TEXT/UTF8
Codec ID/Info : UTF-8 Plain Text
Duration : 1 h 22 min
Bit rate : 61 b/s
Count of elements : 740
Stream size : 37.3 KiB (0%)
Title : Full
Language : Ukrainian
Default : No
Forced : No
Text #3
ID : 6
Format : UTF-8
Codec ID : S_TEXT/UTF8
Codec ID/Info : UTF-8 Plain Text
Duration : 1 h 23 min
Bit rate : 44 b/s
Count of elements : 960
Stream size : 27.3 KiB (0%)
Title : SDH
Language : English
Default : No
Forced : No
Menu
00:00:00.000 : :eng: 01
00:10:12.028 : :eng: 02
00:20:37.277 : :eng: 03
00:32:44.211 : :eng: 04
00:41:03.418 : :eng: 05
00:50:34.155 : :eng: 06
01:01:24.222 : :eng: 07
01:08:11.878 : :eng: 08
01:21:13.368 : :eng: 09
01:27:59.774 : :eng: 10
Релиз от: & &
pb.wtf



Скачать Оцепеневшие от страха через торрент https://i114.fastpic.ru/big/2021/0109/a2/52de38b0413f3d29462592f3873c8ea2.jpg Скачать фильм Оцепеневшие от страха через торрент бесплантно в хорошем качестве Описание: Леденящие душу жуткие события сотрясают пригородное местечко, где соседствуют три уютных домика. Неведомая и невидимая сила ... 9.4 10 5
Торрент: Зарегистрирован [2021-01-09 20:46] · скачан: 122 раз
Статус: √ проверено
Размер: 2.05 GB
Как cкачать? Как скачать Оцепеневшие от страха через торрент | UTorrent

28-11-2019 20:33  

Отключить всю рекламу на сайте

10-01-2021 00:42 Оцепеневшие от страха Скачать торрент  

уважаемый товарищ релизер!) поправьте в ссылке на раздачу год производства фильма - 2020 указанpb.wtf



11-01-2021 15:06 Оцепеневшие от страха Скачать торрент  

Хороший ужастик.pb.wtf



    Дорогой пользователь! Огромная просьба, поблагодарите релизера, оцените раздачу и оставьте свои комментарий, если Вы скачали Оцепеневшие от страха через торрент бесплатно! Внесите свою лепту в развитие PiratBit!
    Комментировать посты могут только пользователи прошедшие не сложную регистрацию
    Показать сообщения:    

    Оцепеневшие от страха через торрент
    Скачать бесплатно Оцепеневшие от страха
    Оцепеневшие от страха скачать торрент
    Оцепеневшие от страха смотреть онлайн
    Cкачать фильм Оцепеневшие от страха бесплатно
    Оцепеневшие от страха скачать торрент в хорошем качестве
    Оцепеневшие от страха смотреть онлайн бесплатно в хорошем качестве


    Вы не можете начинать темы
    Вы не можете отвечать на сообщения
    Вы не можете редактировать свои сообщения
    Вы не можете удалять свои сообщения
    Вы не можете голосовать в опросах
    Вы не можете прикреплять файлы к сообщениям
    Вы можете скачивать файлы