1 сезон

1 сезон

iTunes

1

iTunes

Кинопоиск HD

iTunes

13

1 сезон

RePack

30

Deluxe

ВАЖНО

ИГРА 18+

pack

RePack

MK11
pack

Легкие деньги

RePack

jed

RePack

fifa19

RePack

RDR2

RePack

NEED FOR SPEED™ PAYBACK

4 сезон

9 сезон

Бесстыжие 9 сезон

Все сериалы

все сериалы на PB.wtf

RePack

FAR CRY 5
  
Magnet ссылка

Кинг-Конг / King Kong (Джон Гиллермин) [1976, ужасы, приключения, BDRip-HEVC 1080p] MVO + DVO + AVO pb.wtf

Кинг-Конг через торрент pb.wtf

Размер: 10.69 GB | Добавлен: 4 мес. 1 д. назад | Торрент скачан:9 раз
Скачать  

10-01-2021 03:15 Кинг-Конг Скачать торрент  

Название: Кинг-Конг
Оригинальное название: King Kong
Год производства: 1976
Жанр: ужасы, приключения
Режиссер: Джон Гиллермин
В ролях: Джефф Бриджес, Чарльз Гродин, Джессика Лэнг, Джон Рэндольф, Рене Обержонуа, Джулиус Харрис, Джек О’Хэллоран, Деннис Фимпл, Эд Лотер, Хорхе Морено

О фильме: Нефтеразведочная экспедиция компании «Petrox», к которой хитростью присоединился палеонтолог и защитник природы Джек Прескотт, отправляется на малоизученный тихоокеанский остров. По пути экспедиция спасает потерпевшую кораблекрушение голливудскую звезду Дуэн. На острове нефтяники сталкиваются с гигантской гориллой, которую местные жители называют Конг. Обезьяна похищает Дуан, но Прескотту удается её освободить. Руководитель экспедиции решает, что раз уж нефти на острове найти не удалось, то можно вывезти с него хотя бы обезьяну и заработать, показывая её нью-йоркской публике. Однако во время первого же представления Конг освобождается и начинает крушить все на своём пути...



Страна: США
Студия: Dino De Laurentiis Productions
Продолжительность: 02:14:28
Перевод: профессиональный многоголосый, профессиональный двухголосый, авторский одноголосый

Качество: BDRip-HEVC 1080p
Кодек: HEVC (x265)
Видео: 1920x816 (2.35:1), 9905 Кбит/сек, HEVC (Main10@L.4.1@High) 10 бит
Звук:
Аудио1: AC3, 6 ch, 448 Kbps - Русский, Многоголосый (Амальгама)
Аудио2: AC3, 2 ch, 192 Kbps - Русский, Двухголосый (НТВ+)
Аудио3: AC3, 2 ch, 192 Kbps - Русский, Авторский (Григорий Либергал)
Аудио4: AC3, 6 ch, 640 Kbps - English, Original
Субтитры: Русские полные (SRT), English full (SRT)
Навигация по главам: Есть
x265 [info]: frame I: 812, Avg QP:17.05 kb/s: 24495.56
x265 [info]: frame P: 40618, Avg QP:18.56 kb/s: 18449.62
x265 [info]: frame B: 152011, Avg QP:20.29 kb/s: 7542.34
x265 [info]: Weighted P-Frames: Y:13.1% UV:10.3%
x265 [info]: Weighted B-Frames: Y:8.7% UV:6.3%
x265 [info]: consecutive B-frames: 1.0% 1.5% 3.1% 50.9% 14.0% 27.7% 1.2% 0.6% 0.1%
x265 [info]: encoded 193441 frames in 411855.11s (0.47 fps), 9903.78 kb/s, Avg QP:19.91
Общее
Уникальный идентификатор : 141109733211490772458344219476304338976 (0x6A28BEFE07034010A77357BBAF4C2020)
Полное имя : \\.\Кинг-Конг.King.Kong.1976.BDRip-HEVC.1080p.mkv
Формат : Matroska
Версия формата : Version 4
Размер файла : 10,7 Гбайт
Продолжительность : 2 ч. 14 м.
Общий поток : 11,4 Мбит/сек
Название фильма : Кинг-Конг.King.Kong.1976.BDRip-HEVC.1080p
Дата кодирования : UTC 2021-01-10 02:04:25
Программа кодирования : mkvmerge v51.0.0 ('I Wish') 64-bit
Библиотека кодирования : libebml v1.4.0 + libmatroska v1.6.2

Видео
Идентификатор : 1
Формат : HEVC
Формат/Информация : High Efficiency Video Coding
Профиль формата : Main 10@L4.1@High
Идентификатор кодека : V_MPEGH/ISO/HEVC
Продолжительность : 2 ч. 14 м.
Битрейт : 9 905 Кбит/сек
Ширина : 1 920 пикселей
Высота : 816 пикселей
Соотношение сторон : 2,35:1
Режим частоты кадров : Постоянный
Частота кадров : 23,976 (24000/1001) кадра/сек
Цветовое пространство : YUV
Субдискретизация насыщенности : 4:2:0
Битовая глубина : 10 бит
Бит/(Пиксели*Кадры) : 0.264
Размер потока : 9,30 Гбайт (87%)
Заголовок : King Kong (1976) / Rip by OldGamer
Библиотека кодирования : x265 3.4+4-g3ae3d7116:[Windows][GCC 10.2.0][64 bit] 10bit
Настройки программы : cpuid=1111039 / frame-threads=3 / numa-pools=8 / wpp / no-pmode / no-pme / no-psnr / no-ssim / log-level=2 / input-csp=1 / input-res=1920x816 / interlace=0 / total-frames=193441 / level-idc=41 / high-tier=1 / uhd-bd=0 / ref=5 / no-allow-non-conformance / no-repeat-headers / annexb / no-aud / no-hrd / info / hash=0 / no-temporal-layers / open-gop / min-keyint=23 / keyint=240 / gop-lookahead=0 / bframes=8 / b-adapt=2 / b-pyramid / bframe-bias=0 / rc-lookahead=40 / lookahead-slices=0 / scenecut=40 / hist-scenecut=0 / radl=0 / no-splice / no-intra-refresh / ctu=64 / min-cu-size=8 / rect / amp / max-tu-size=32 / tu-inter-depth=4 / tu-intra-depth=4 / limit-tu=1 / rdoq-level=2 / dynamic-rd=0.00 / no-ssim-rd / signhide / no-tskip / nr-intra=0 / nr-inter=0 / no-constrained-intra / no-strong-intra-smoothing / max-merge=5 / limit-refs=3 / no-limit-modes / me=3 / subme=7 / merange=57 / temporal-mvp / no-frame-dup / no-hme / weightp / weightb / no-analyze-src-pics / deblock=-3:-2 / no-sao / no-sao-non-deblock / rd=6 / selective-sao=0 / no-early-skip / rskip / no-fast-intra / no-tskip-fast / no-cu-lossless / b-intra / no-splitrd-skip / rdpenalty=0 / psy-rd=2.00 / psy-rdoq=1.00 / no-rd-refine / no-lossless / cbqpoffs=0 / crqpoffs=0 / rc=crf / crf=19.1 / qcomp=0.60 / qpstep=4 / stats-write=0 / stats-read=0 / vbv-maxrate=50000 / vbv-bufsize=50000 / vbv-init=0.9 / crf-max=0.0 / crf-min=0.0 / ipratio=1.40 / pbratio=1.30 / aq-mode=1 / aq-strength=1.00 / no-cutree / zone-count=0 / no-strict-cbr / qg-size=32 / no-rc-grain / qpmax=69 / qpmin=0 / no-const-vbv / sar=1 / overscan=0 / videoformat=5 / range=0 / colorprim=2 / transfer=2 / colormatrix=2 / chromaloc=0 / display-window=0 / cll=0,0 / min-luma=0 / max-luma=1023 / log2-max-poc-lsb=8 / vui-timing-info / vui-hrd-info / slices=1 / no-opt-qp-pps / no-opt-ref-list-length-pps / no-multi-pass-opt-rps / scenecut-bias=0.00 / hist-threshold=0.01 / no-opt-cu-delta-qp / no-aq-motion / no-hdr10 / no-hdr10-opt / no-dhdr10-opt / no-idr-recovery-sei / analysis-reuse-level=0 / analysis-save-reuse-level=0 / analysis-load-reuse-level=0 / scale-factor=0 / refine-intra=0 / refine-inter=0 / refine-mv=1 / refine-ctu-distortion=0 / no-limit-sao / ctu-info=0 / no-lowpass-dct / refine-analysis-type=0 / copy-pic=1 / max-ausize-factor=1.0 / no-dynamic-refine / no-single-sei / no-hevc-aq / no-svt / no-field / qp-adaptation-range=1.00 / no-scenecut-aware-qpconformance-window-offsets / right=0 / bottom=0 / decoder-max-rate=0
Язык : English
Default : Да
Forced : Нет

Аудио #1
Идентификатор : 2
Формат : AC-3
Формат/Информация : Audio Coding 3
Коммерческое название : Dolby Digital
Идентификатор кодека : A_AC3
Продолжительность : 2 ч. 14 м.
Вид битрейта : Постоянный
Битрейт : 448 Кбит/сек
Каналы : 6 каналов
Channel layout : L R C LFE Ls Rs
Частота : 48,0 КГц
Частота кадров : 31,250 кадров/сек (1536 SPF)
Метод сжатия : С потерями
Размер потока : 430 Мбайт (4%)
Заголовок : MVO (Амальгама)
Язык : Russian
Service kind : Complete Main
Default : Да
Forced : Нет

Аудио #2
Идентификатор : 3
Формат : AC-3
Формат/Информация : Audio Coding 3
Коммерческое название : Dolby Digital
Идентификатор кодека : A_AC3
Продолжительность : 2 ч. 14 м.
Вид битрейта : Постоянный
Битрейт : 192 Кбит/сек
Каналы : 2 канала
Channel layout : L R
Частота : 48,0 КГц
Частота кадров : 31,250 кадров/сек (1536 SPF)
Метод сжатия : С потерями
Размер потока : 185 Мбайт (2%)
Заголовок : DVO (НТВ+)
Язык : Russian
Service kind : Complete Main
Default : Нет
Forced : Нет

Аудио #3
Идентификатор : 4
Формат : AC-3
Формат/Информация : Audio Coding 3
Коммерческое название : Dolby Digital
Идентификатор кодека : A_AC3
Продолжительность : 2 ч. 14 м.
Вид битрейта : Постоянный
Битрейт : 192 Кбит/сек
Каналы : 2 канала
Channel layout : L R
Частота : 48,0 КГц
Частота кадров : 31,250 кадров/сек (1536 SPF)
Метод сжатия : С потерями
Размер потока : 185 Мбайт (2%)
Заголовок : AVO (Григорий Либергал)
Язык : Russian
Service kind : Complete Main
Default : Нет
Forced : Нет

Аудио #4
Идентификатор : 5
Формат : AC-3
Формат/Информация : Audio Coding 3
Коммерческое название : Dolby Digital
Идентификатор кодека : A_AC3
Продолжительность : 2 ч. 14 м.
Вид битрейта : Постоянный
Битрейт : 640 Кбит/сек
Каналы : 6 каналов
Channel layout : L R C LFE Ls Rs
Частота : 48,0 КГц
Частота кадров : 31,250 кадров/сек (1536 SPF)
Метод сжатия : С потерями
Размер потока : 616 Мбайт (6%)
Язык : English
Service kind : Complete Main
Default : Нет
Forced : Нет

Текст #1
Идентификатор : 6
Формат : UTF-8
Идентификатор кодека : S_TEXT/UTF8
Идентификатор кодека/Информация : UTF-8 Plain Text
Продолжительность : 2 ч. 11 м.
Битрейт : 51 бит/сек
Count of elements : 737
Размер потока : 49,7 Кбайт (0%)
Язык : Russian
Default : Нет
Forced : Нет

Текст #2
Идентификатор : 7
Формат : UTF-8
Идентификатор кодека : S_TEXT/UTF8
Идентификатор кодека/Информация : UTF-8 Plain Text
Продолжительность : 2 ч. 10 м.
Битрейт : 25 бит/сек
Count of elements : 591
Размер потока : 24,0 Кбайт (0%)
Язык : English
Default : Нет
Forced : Нет

Меню
00:00:00.000 : :Chapter 01
00:07:45.089 : :Chapter 02
00:14:36.709 : :Chapter 03
00:24:06.862 : :Chapter 04
00:32:32.367 : :Chapter 05
00:40:28.259 : :Chapter 06
00:46:29.203 : :Chapter 07
00:51:32.005 : :Chapter 08
01:00:10.023 : :Chapter 09
01:06:26.983 : :Chapter 10
01:12:03.944 : :Chapter 11
01:19:18.754 : :Chapter 12
01:25:25.120 : :Chapter 13
01:30:36.848 : :Chapter 14
01:35:03.322 : :Chapter 15
01:42:00.322 : :Chapter 16
01:49:40.573 : :Chapter 17
01:57:03.933 : :Chapter 18
02:03:43.040 : :Chapter 19
02:12:04.333 : :Chapter 20
02:14:28.101 : :Chapter 21


Релиз от: OldGamer pb.wtf



Скачать Кинг-Конг через торрент https://b.radikal.ru/b28/2101/74/2225a11698e7.jpg Скачать фильм Кинг-Конг через торрент бесплантно в хорошем качестве О фильме: Нефтеразведочная экспедиция компании «Petrox», к которой хитростью присоединился палеонтолог и защитник природы Джек Прескотт, ... 9.7 10 3
Торрент: Зарегистрирован [2021-01-10 03:15] · скачан: 9 раз
Статус: √ проверено
Размер: 10.69 GB
Как cкачать? Как скачать Кинг-Конг через торрент | UTorrent

% Раздел Тема Автор DL S | L
Ultra HD (UHD: 2K, 4K, 8K) — видео сверхвысокой чёткости [ 70.7 GB ] Кинг Конг / King Kong [2005 UHD BDRip 2160p] DUB + 2xAVO + DVO + MVO [Расширенная Версия] sheker187 Скачать
1 | 0
Ultra HD (UHD: 2K, 4K, 8K) — видео сверхвысокой чёткости [ 100.19 GB ] Кинг Конг / King Kong [2005 Мело UHD BDRemux 2160p] 2xAVO+2xMVO +MVO +DUB [Режиссерская версия] [] bober100 Скачать
1 | 0

28-11-2019 20:33  

Отключить всю рекламу на сайте

10-01-2021 06:45 Кинг-Конг Скачать торрент  

первый кин с участием обьзяны который я посмотрел в советском кинотеатре...вот это были впечатления...pb.wtf



    Дорогой пользователь! Огромная просьба, поблагодарите релизера, оцените раздачу и оставьте свои комментарий, если Вы скачали Кинг-Конг через торрент бесплатно! Внесите свою лепту в развитие PiratBit!
    Комментировать посты могут только пользователи прошедшие не сложную регистрацию
    Показать сообщения:    

    Кинг-Конг через торрент
    Скачать бесплатно Кинг-Конг
    Кинг-Конг скачать торрент
    Кинг-Конг смотреть онлайн
    Cкачать фильм Кинг-Конг бесплатно
    Кинг-Конг скачать торрент в хорошем качестве
    Кинг-Конг смотреть онлайн бесплатно в хорошем качестве


    Вы не можете начинать темы
    Вы не можете отвечать на сообщения
    Вы не можете редактировать свои сообщения
    Вы не можете удалять свои сообщения
    Вы не можете голосовать в опросах
    Вы не можете прикреплять файлы к сообщениям
    Вы можете скачивать файлы