Доктор Стрэндж

Лицензия

Добыча

Дубляж

Уэнсдэй

1 сезон

Тор

Дубляж

В эфире

Дубляж

Там, где раки поют

MVO

Властелин колец

1 сезон

Deluxe

pack

Рекомендуем

30

Пиратка

ВАЖНО

ВАЖНО

Ghostwire

Пиратка

jed

RePack

nioh2

RePack

RDR2

RePack

NEED FOR SPEED™ PAYBACK

RePack

скачать торрент

Кинопоиск HD

Острые козырьки 6 сезон

6 сезон

FAR CRY 6

RePack

скачать торрент

Лицензия

скачать торрент

MVO

1

1 сезон

скачать торрент

1 сезон

скачать торрент

Лицензия

  

Настя, соберись! / Сезон: 1 / Серии: 1-10 из 10 (Вера Смолина) [2021, Комедия, WEBRip 2160p, (Версия 18+)]

Настя, соберись! через торрент pb.wtf

Размер: 29.33 GB | Добавлен: 1 год 10 мес. назад | Торрент скачан:58 раз
Смотреть онлайн | Скачать   

10-01-2021 16:08 Настя, соберись! Скачать торрент  

Настя, соберись!
Год выпуска: 2021
Страна: Россия
Выпущено: КиноПоиск HD, Droog Drooga Films
Жанр: Комедия
Продолжительность: ~ 00:30:00 серия
Субтитры: Русские
Версия 18+. Внимание! Присутствует ненормативная лексика.

Режиссер: Вера Смолина



В ролях: Любовь Аксёнова, Юлия Ауг, Светлана Камынина, Алина Алексеева (II), Рина Гришина, Юлия Гришаева, Ева Смирнова (II), Вера Строкова, Маргарита Аброськина, Арсений Сергеев

Описание: Знакомьтесь: Настя, 29 лет, дизайнер-архитектор, замужем. В ней уживаются пять совершенно разных внутренних «я». Это внутренний ребенок; ответственная за приступы всех генеральных уборок хозяюшка; одержимый контролем требовательный родитель; богиня удовольствий и самоуверенная, дерзкая карьеристка. У каждой из них — свои интересы и представления о счастье. Они хитрят, спорят и воюют между собой. Но когда Настя одновременно потеряет работу, мужа и лучшую подругу, пятёрку ждёт сложная задача. Им предстоит научиться договариваться друг с другом и идти на компромиссы — все ради того, чтобы Настя смогла с уверенностью сказать: «Я люблю себя всех!».

Качество: WEBRip 2160p
Формат: MKV

Видео: H.265, ~ 11600 Кбит/с, 3840х2160, 25 fps
Аудио #01: 48.0 kHz, AC3 Dolby Digital, 2/0 (L,R) ch, ~ 192 kbps | C цензурой
Аудио #02: 48.0 kHz, AC3 Dolby Digital, 2/0 (L,R) ch, ~ 192 kbps | Внимание! Присутствует ненормативная лексика (18+)
скриншот  скриншот  скриншот  скриншот  

General
Unique ID : 212779875580129776312153703270814634774 (0xA013E9D43510C3650F983920D198D316)
Complete name : Настя, соберись! (2021) - 1 Сезон - WEB-DL 2160p/Настя, соберись! (2021) - S1E01 - WEB-DL 2160p.mkv
Format : Matroska
Format version : Version 4
File size : 2.55 GiB
Duration : 30 min 31 s
Overall bit rate : 11.9 Mb/s
Encoded date : UTC 2021-01-04 22:35:58
Writing application : mkvmerge v51.0.0 ('I Wish') 64-bit
Writing library : libebml v1.4.0 + libmatroska v1.6.2

Video
ID : 1
Format : HEVC
Format/Info : High Efficiency Video Coding
Format profile : [email protected]@Main
Codec ID : V_MPEGH/ISO/HEVC
Duration : 30 min 31 s
Bit rate : 11.6 Mb/s
Width : 3 840 pixels
Height : 2 160 pixels
Display aspect ratio : 16:9
Frame rate mode : Constant
Frame rate : 25.000 FPS
Color space : YUV
Chroma subsampling : 4:2:0
Bit depth : 8 bits
Bits/(Pixel*Frame) : 0.056
Stream size : 2.46 GiB (97%)
Writing library : x265 3.1+5-9c5c9cef2a86:[Linux][GCC 6.3.0][64 bit] 8bit+10bit+12bit
Encoding settings : cpuid=1111039 / frame-threads=6 / wpp / no-pmode / no-pme / no-psnr / no-ssim / log-level=2 / input-csp=1 / input-res=3840x2160 / interlace=0 / total-frames=0 / level-idc=0 / high-tier=1 / uhd-bd=0 / ref=4 / no-allow-non-conformance / no-repeat-headers / annexb / no-aud / no-hrd / info / hash=0 / no-temporal-layers / no-open-gop / min-keyint=100 / keyint=100 / gop-lookahead=0 / bframes=4 / b-adapt=2 / b-pyramid / bframe-bias=0 / rc-lookahead=25 / lookahead-slices=4 / scenecut=0 / radl=0 / no-splice / no-intra-refresh / ctu=64 / min-cu-size=8 / rect / no-amp / max-tu-size=32 / tu-inter-depth=1 / tu-intra-depth=1 / limit-tu=0 / rdoq-level=2 / dynamic-rd=0.00 / no-ssim-rd / signhide / no-tskip / nr-intra=0 / nr-inter=0 / no-constrained-intra / strong-intra-smoothing / max-merge=3 / limit-refs=3 / limit-modes / me=3 / subme=3 / merange=57 / temporal-mvp / weightp / no-weightb / no-analyze-src-pics / deblock=0:0 / sao / no-sao-non-deblock / rd=4 / no-early-skip / rskip / no-fast-intra / no-tskip-fast / no-cu-lossless / no-b-intra / no-splitrd-skip / rdpenalty=0 / psy-rd=2.00 / psy-rdoq=1.00 / no-rd-refine / no-lossless / cbqpoffs=0 / crqpoffs=0 / rc=abr / bitrate=11600 / qcomp=0.60 / qpstep=4 / stats-write=0 / stats-read=2 / cplxblur=20.0 / qblur=0.5 / vbv-maxrate=17400 / vbv-bufsize=23200 / vbv-init=0.9 / ipratio=1.40 / pbratio=1.30 / aq-mode=2 / aq-strength=1.00 / cutree / zone-count=0 / no-strict-cbr / qg-size=32 / no-rc-grain / qpmax=69 / qpmin=0 / no-const-vbv / sar=1 / overscan=0 / videoformat=5 / range=0 / colorprim=2 / transfer=2 / colormatrix=2 / chromaloc=0 / display-window=0cll=0,0 / min-luma=0 / max-luma=255 / log2-max-poc-lsb=8 / vui-timing-info / vui-hrd-info / slices=1 / no-opt-qp-pps / no-opt-ref-list-length-pps / no-multi-pass-opt-rps / scenecut-bias=0.05 / no-opt-cu-delta-qp / no-aq-motion / no-hdr / no-hdr-opt / no-dhdr10-opt / no-idr-recovery-sei / analysis-reuse-level=5 / scale-factor=0 / refine-intra=0 / refine-inter=0 / refine-mv=0 / refine-ctu-distortion=0 / no-limit-sao / ctu-info=0 / no-lowpass-dct / refine-analysis-type=0 / copy-pic=1 / max-ausize-factor=1.0 / no-dynamic-refine / no-single-sei / no-hevc-aq / no-svt / no-field / qp-adaptation-range=1.00
Default : Yes
Forced : No
Color range : Limited

Audio #1
ID : 2
Format : AAC LC
Format/Info : Advanced Audio Codec Low Complexity
Codec ID : A_AAC-2
Duration : 30 min 31 s
Bit rate : 192 kb/s
Channel(s) : 2 channels
Channel layout : L R
Sampling rate : 48.0 kHz
Frame rate : 46.875 FPS (1024 SPF)
Compression mode : Lossy
Stream size : 41.9 MiB (2%)
Title : Русский
Language : Russian
Default : Yes
Forced : No

Audio #2
ID : 3
Format : AAC LC
Format/Info : Advanced Audio Codec Low Complexity
Codec ID : A_AAC-2
Duration : 30 min 31 s
Bit rate : 192 kb/s
Channel(s) : 2 channels
Channel layout : L R
Sampling rate : 48.0 kHz
Frame rate : 46.875 FPS (1024 SPF)
Compression mode : Lossy
Stream size : 41.9 MiB (2%)
Title : Русский (18+)
Language : Russian
Default : No
Forced : No

Text
ID : 4
Format : UTF-8
Codec ID : S_TEXT/UTF8
Codec ID/Info : UTF-8 Plain Text
Duration : 28 min 58 s
Bit rate : 99 b/s
Count of elements : 313
Stream size : 21.2 KiB (0%)
Language : Russian
Default : No
Forced : No




Скачать Настя, соберись! через торрент https://a.radikal.ru/a38/2101/94/6dd2623fca46.png Скачать, смотреть онлайн Настя, соберись! бесплантно в хорошем качестве Описание: Знакомьтесь: Настя, 29 лет, дизайнер-архитектор, замужем. В ней уживаются пять совершенно разных внутренних «я». Это внутренний ... 10 10 3
Торрент: Зарегистрирован [2021-01-10 16:08] · скачан: 58 раз
Статус: √ проверено
Размер: 29.33 GB
Как cкачать? Как скачать Настя, соберись! через торрент | UTorrent

% Раздел Тема Автор DL S | L
Наши сериалы [ 8.2 GB ] Настя, соберись! / Сезон: 1 / Серии: 1-10 из 10 | | 720p, (Версия 18+ bober100 Скачать
1 | 0
Наши сериалы [ 5.17 GB ] Настя, соберись! / Сезон: 1 / Серии: 1-10 из 10 | | WEBRip, (Версия 18+ bober100 Скачать
1 | 0
Наши сериалы [ 12.95 GB ] Настя, соберись! / Сезон: 1 / Серии: 1-10 из 10 | | 1080p, (Версия 18+ bober100 Скачать
1 | 0
Наши сериалы [ 4.42 GB ] Настя, соберись! / Сезон: 1 / Серии: 1-10 из 10 | | WEBRip-AVC, (Версия 18+ bober100 Скачать
1 | 0

28-11-2019 20:33  


Отключить вcю реклaмy на сайте, в т.ч. и в плеере онлайн просмотра!

    Дорогой пользователь! Огромная просьба, поблагодарите релизера, оцените раздачу и оставьте свои комментарий, если Вы скачали Настя, соберись! через торрент бесплатно!!
    Комментировать посты могут только пользователи прошедшие не сложную регистрацию
    Показать сообщения:    


    Настя, соберись! через торрент
    Скачать бесплатно Настя, соберись!
    Настя, соберись! скачать торрент
    Настя, соберись! смотреть онлайн
    Cкачать фильм Настя, соберись! бесплатно
    Настя, соберись! скачать торрент в хорошем качестве
    Настя, соберись! смотреть онлайн бесплатно в хорошем качестве
    Вы не можете начинать темы
    Вы не можете отвечать на сообщения
    Вы не можете редактировать свои сообщения
    Вы не можете удалять свои сообщения
    Вы не можете голосовать в опросах
    Вы не можете прикреплять файлы к сообщениям
    Вы можете скачивать файлы
    Настя, соберись! / Сезон: 1 / Серии: 1-10 из 10 [2021, Комедия, WEBRip 2160p, ] смотреть онлайн, скачать торрент picoco.icu